ML
     
  Уважаемый Гость!
Вы можете поддержать проект и зарегистрироваться у наших партнеров - онлайн-стратегия MyLands. При регистрации в игре Вы получите код, который сможете активировать после регистрации на pirat.ca и получить 1000 дублонов.

Ваш код:
a01a592a88af5f9996a6d1baec61b18a1769954d
 
     

Чемпионат Мира 2014 / FIFA 2014 / Франция - Нигерия / 1/8 финала [30.06.2014, Спорт 1 HD, Футбол, H.264, 50fps, HDTVRip/720p]

Ответить на тему
 
Автор
Сообщение

Пост 01-Июл-2014 09:08

[Q] 

UcrusPazzo

Чемпионат Мира 2014 / FIFA 2014
Франция - Нигерия / 1/8 финала
-Год выпуска: 30.06.2014
Вид спорта: Футбол
Участники: Франция - Нигерия
Продолжительность: 01:58:30
Комментарий: русский (Роман Трушечкин)-Автор рипа / записи: Striker
-Описание:
30 июня 2014 года, понедельник. 20:00 мск
1/8 финала
Стадион: Манэ Гарринча - Национальный (Бразилиа, Бразилия) Зрителей: 68000 (вместимость – 69432)
Главный судья: Марк Гейгер (Бичвуд, Нью-Джерси, США); Ассистент: Марк Хард (Флорида, США); Ассистент: Джо Флетчер (Сент-Катаринс, Канада)-Качество видео: HDTVRip
Контейнер: MKV
Видео кодек: H.264
Аудио кодек: AC3
Видео: 3970 Кбит/сек; 1280*720 (16:9); в 50,000 кадров/сек; 0.086 Бит/(Пиксели*Кадры); AVC
Аудио: 192 Кбит/сек; 48,0 КГц; 16 бит; 2 канала; АС-3
Франция
Вратари

1 Уго Льорис (к) Тоттенхэм Хотспур
16 Стефан Руффье[10] Сент-Этьен
23 Микаэль Ландро Бастия
Защитники
2 Матьё Дебюши Ньюкасл Юнайтед
3 Патрис Эвра Манчестер Юнайтед
4 Рафаэль Варан Реал Мадрид
5 Мамаду Сако Ливерпуль
13 Эльяким Мангала Порту
15 Бакари Санья Арсенал
17 Люка Динь Пари Сен-Жермен
21 Лоран Косельни Арсенал
Полузащитники
6 Йоан Кабай Пари Сен-Жермен
7 Реми Кабелля[11] Монпелье
8 Матьё Вальбуэна Марсель
11 Антуан Гризманн Реал Сосьедад
12 Рио Мавуба Лилль
14 Блез Матюиди Пари Сен-Жермен
18 Мусса Сиссоко Ньюкасл Юнайтед
19 Поль Погба Ювентус
22 Морган Шнедерлен[12] Саутгемптон
Нападающие
9 Оливье Жиру Арсенал
10 Карим Бензема Реал Мадрид
20 Лоик Реми Ньюкасл Юнайтед
Главный тренер Дидье Дешам Франция-Нигерия
Вратари

1 Винсент Эньеама (к) Лилль
16 Остин Эджиде Хапоэль (Беэр-Шева)
21 Чигози Агбим Гомбе Юнайтед
Защитники
2 Джозеф Йобо Норвич Сити
3 Эджике Узоеньи[15] Энугу Рейнджерс
5 Эфе Амброуз Селтик
6 Азубуйке Эгвуэкве Варри Вулвз
12 Кунле Одунлами Саншайн Старз
13 Джувон Ошанива Ашдод
14 Годфри Обоабона Ризеспор
22 Кеннет Омеруо Мидлсбро
Полузащитники
4 Реубен Габриель Васланд-Беверен
10 Джон Оби Микел Челси
15 Рамон Азиз Альмерия
17 Оджени Онази Лацио
20 Майкл Учебо Серкль Брюгге
Нападающие
7 Ахмед Муса ЦСКА (Москва)
8 Питер Одемвингие Сток Сити
9 Эммануэль Эменике Фенербахче
11 Виктор Мозес Ливерпуль
18 Мишель Бабатунде Волынь
19 Уче Нвофор Херенвеен
23 Шола Амеоби Ньюкасл Юнайтед
Главный тренер Стивен Кеши Нигерия
Общее
Уникальный идентификатор : 183847938772404110525301673724727940832 (0x8A4FD33672C0C24B8507E19DA54E56E0)
Формат : Matroska
Версия формата : Version 4 / Version 2
Размер файла : 3,51 Гбайт
Продолжительность : 1 ч. 58 м.
Общий поток : 4246 Кбит/сек
Дата кодирования : UTC 2014-06-30 18:21:09
Программа кодирования : mkvmerge v7.0.0 ('Where We Going') 64bit built on Jun 9 2014 15:16:27
Библиотека кодирования : libebml v1.3.0 + libmatroska v1.4.1
Видео
Идентификатор : 1
Формат : AVC
Формат/Информация : Advanced Video Codec
Профиль формата : [email protected]
Параметр CABAC формата : Да
Параметр ReFrames формата : 4 кадра
Параметр GOP формата : M=2, N=15
Идентификатор кодека : V_MPEG4/ISO/AVC
Продолжительность : 1 ч. 58 м.
Битрейт : 3970 Кбит/сек
Ширина : 1280 пикселей
Высота : 720 пикселей
Соотношение сторон : 16:9
Режим частоты кадров : Постоянный
Частота кадров : 50,000 кадров/сек
Цветовое пространство : YUV
Субдискретизация насыщенности : 4:2:0
Битовая глубина : 8 бит
Тип развёртки : Прогрессивная
Бит/(Пиксели*Кадры) : 0.086
Размер потока : 3,29 Гбайт (93%)
Default : Да
Forced : Нет
Основные цвета : BT.709
Характеристики трансфера : BT.709
Коэффициенты матрицы : BT.709
DURATION : 01:58:30.380000000
NUMBER_OF_FRAMES : 355519
NUMBER_OF_BYTES : 3600492649
_STATISTICS_WRITING_APP : mkvmerge v7.0.0 ('Where We Going') 64bit built on Jun 9 2014 15:16:27
_STATISTICS_WRITING_DATE_UTC : 2014-06-30 18:21:09
_STATISTICS_TAGS : BPS DURATION NUMBER_OF_FRAMES NUMBER_OF_BYTES
Аудио
Идентификатор : 2
Формат : AC-3
Формат/Информация : Audio Coding 3
Расширение режима : CM (complete main)
Параметр Endianness формата : Big
Идентификатор кодека : A_AC3
Продолжительность : 1 ч. 58 м.
Вид битрейта : Постоянный
Битрейт : 192 Кбит/сек
Каналы : 2 канала
Расположение каналов : Front: L R
Частота : 48,0 КГц
Битовая глубина : 16 бит
Метод сжатия : С потерями
Размер потока : 163 Мбайт (5%)
Язык : Russian
Default : Да
Forced : Нет
DURATION : 01:58:30.344000000
NUMBER_OF_FRAMES : 222195
NUMBER_OF_BYTES : 170645760
_STATISTICS_WRITING_APP : mkvmerge v7.0.0 ('Where We Going') 64bit built on Jun 9 2014 15:16:27
_STATISTICS_WRITING_DATE_UTC : 2014-06-30 18:21:09
_STATISTICS_TAGS : BPS DURATION NUMBER_OF_FRAMES NUMBER_OF_BYTES
Download / Скачать

Хотите скачать бесплатно? Зарегистрируйтесь на сайте (ссылка на регистрацию). Pirat.ca - самый быстрый торрент трекер в рунете!

Как скачивать  ·   Что такое торрент  ·   Рейтинг и ограничения

Показать сообщения:    
Ответить на тему

Текущее время: Сегодня 09:48

Часовой пояс: GMT + 4



Вы не можете начинать темы
Вы не можете отвечать на сообщения
Вы не можете редактировать свои сообщения
Вы не можете удалять свои сообщения
Вы не можете голосовать в опросах
Вы не можете прикреплять файлы к сообщениям
Вы не можете скачивать файлы

▼ Вниз