ML
     
  Уважаемый Гость!
Вы можете поддержать проект и зарегистрироваться у наших партнеров - онлайн-стратегия MyLands. При регистрации в игре Вы получите код, который сможете активировать после регистрации на pirat.ca и получить 1000 дублонов.

Ваш код:
ca44e9295b9b8527ba1c339c20494f70782efea6
 
     

Чемпионат Мира 2014 / FIFA 2014 / Германия - Алжир / 1/8 финала [01.07.2014, Спорт 1 HD, Футбол, H.264, 50fps, HDTVRip/720p]

Ответить на тему
 
Автор
Сообщение

Пост 01-Июл-2014 09:13

[Q] 

UcrusPazzo

Чемпионат Мира 2014 / FIFA 2014
Германия - Алжир / 1/8 финала
-Год выпуска: 01.07.2014
Вид спорта: Футбол
Участники: Германия - Алжир
Продолжительность: 02:30:18
Комментарий: русский (Юрий Розанов)-Автор рипа / записи: Striker
-Описание:
01 июля 2014 года, вторник. 00:00 мск
1/8 финала
Стадион: Бейра-Рио - Жозе Пинейро Борда (Порту-Алегри, Бразилия)
Главный судья: Сандро Рикки (Посус-ди-Калдас, Бразилия); Ассистент: Эмерсон де Карвальо (Бразилия); Ассистент: Марсело Ван Гассе (Бразилия)-Качество видео: HDTVRip
Контейнер: MKV
Видео кодек: H.264
Аудио кодек: AC3
Видео: 3962 Кбит/сек; 1280*720 (16:9); в 50,000 кадров/сек; 0.086 Бит/(Пиксели*Кадры); AVC
Аудио: 192 Кбит/сек; 48,0 КГц; 16 бит; 2 канала; АС-3
Германия
Вратари

1 Мануэль Нойер Бавария
12 Рон-Роберт Цилер Ганновер 96
22 Роман Вайденфеллер Боруссия (Дортмунд)
Защитники
3 Маттиас Гинтер Фрайбург
4 Бенедикт Хёведес Шальке 04
5 Матс Хуммельс Боруссия (Дортмунд)
15 Эрик Дурм Боруссия (Дортмунд)
16 Филипп Лам (к) Бавария
17 Пер Мертезакер Арсенал
20 Жером Боатенг Бавария
21 Шкодран Мустафи[16] Сампдория
Полузащитники
2 Кевин Гросскройц Боруссия (Дортмунд)
6 Сами Хедира Реал Мадрид
7 Бастиан Швайнштайгер Бавария
8 Месут Озиль Арсенал
14 Юлиан Дракслер Шальке 04
18 Тони Кроос Бавария
19 Марио Гётце Бавария
23 Кристоф Крамер Боруссия (Мёнхенгладбах)
Нападающие
9 Андре Шюррле Челси
10 Лукас Подольски Арсенал
11 Мирослав Клозе Лацио
13 Томас Мюллер Бавария
Главный тренер Йоахим Лёв Германия-Алжир
Вратари

1 Седрик Си Мохамед КС Константина
16 Мохамед Земмамуш УСМ Алжир
23 Раис М’Боли ЦСКА (София)
Защитники
2 Маджид Бугерра (к) Лехвия
3 Фаузи Гулам Наполи
4 Эссаид Белькалем Уотфорд
5 Рафик Халиш Академика
6 Джамель Месбах Ливорно
12 Карл Меджани Валансьен
17 Лиассин Кадамуро-Бентаиба Мальорка
20 Аисса Манди Реймс
Полузащитники
7 Хассан Йебда Удинезе
8 Мехди Ласен Хетафе
10 Софиан Фегули Валенсия
11 Ясин Брахими Гранада
14 Набиль Бенталеб Тоттенхэм Хотспур
18 Абдельмумен Джабу Клуб Африкэн
19 Сафир Тайдер Интернационале
21 Рияд Махрез Лестер Сити
22 Мехди Мостефа Аяччо
Нападающие
9 Набиль Гиля Порту
13 Ислам Слимани Спортинг (Лиссабон)
15 Эль-Арби Хиллел Судани Динамо (Загреб)
Главный тренер Вахид Халилходжич Босния и Герцеговина
Общее
Уникальный идентификатор : 217908045749268213655769650634582350497 (0xA3EF90239868DC01AA6BADA4BB6B5AA1)
Формат : Matroska
Версия формата : Version 4 / Version 2
Размер файла : 4,45 Гбайт
Продолжительность : 2 ч. 30 м.
Общий поток : 4238 Кбит/сек
Дата кодирования : UTC 2014-06-30 23:10:26
Программа кодирования : mkvmerge v7.0.0 ('Where We Going') 64bit built on Jun 9 2014 15:16:27
Библиотека кодирования : libebml v1.3.0 + libmatroska v1.4.1
Видео
Идентификатор : 1
Формат : AVC
Формат/Информация : Advanced Video Codec
Профиль формата : [email protected]
Параметр CABAC формата : Да
Параметр ReFrames формата : 4 кадра
Параметр GOP формата : M=2, N=15
Идентификатор кодека : V_MPEG4/ISO/AVC
Продолжительность : 2 ч. 30 м.
Битрейт : 3962 Кбит/сек
Ширина : 1280 пикселей
Высота : 720 пикселей
Соотношение сторон : 16:9
Режим частоты кадров : Постоянный
Частота кадров : 50,000 кадров/сек
Цветовое пространство : YUV
Субдискретизация насыщенности : 4:2:0
Битовая глубина : 8 бит
Тип развёртки : Прогрессивная
Бит/(Пиксели*Кадры) : 0.086
Размер потока : 4,16 Гбайт (93%)
Default : Да
Forced : Нет
Основные цвета : BT.709
Характеристики трансфера : BT.709
Коэффициенты матрицы : BT.709
DURATION : 02:30:17.840000000
NUMBER_OF_FRAMES : 450892
NUMBER_OF_BYTES : 4557019787
_STATISTICS_WRITING_APP : mkvmerge v7.0.0 ('Where We Going') 64bit built on Jun 9 2014 15:16:27
_STATISTICS_WRITING_DATE_UTC : 2014-06-30 23:10:26
_STATISTICS_TAGS : BPS DURATION NUMBER_OF_FRAMES NUMBER_OF_BYTES
Аудио
Идентификатор : 2
Формат : AC-3
Формат/Информация : Audio Coding 3
Расширение режима : CM (complete main)
Параметр Endianness формата : Big
Идентификатор кодека : A_AC3
Продолжительность : 2 ч. 30 м.
Вид битрейта : Постоянный
Битрейт : 192 Кбит/сек
Каналы : 2 канала
Расположение каналов : Front: L R
Частота : 48,0 КГц
Битовая глубина : 16 бит
Метод сжатия : С потерями
Размер потока : 206 Мбайт (5%)
Язык : Russian
Default : Да
Forced : Нет
DURATION : 02:30:17.804000000
NUMBER_OF_FRAMES : 281804
NUMBER_OF_BYTES : 216425472
_STATISTICS_WRITING_APP : mkvmerge v7.0.0 ('Where We Going') 64bit built on Jun 9 2014 15:16:27
_STATISTICS_WRITING_DATE_UTC : 2014-06-30 23:10:26
_STATISTICS_TAGS : BPS DURATION NUMBER_OF_FRAMES NUMBER_OF_BYTES
Download / Скачать

Хотите скачать бесплатно? Зарегистрируйтесь на сайте (ссылка на регистрацию). Pirat.ca - самый быстрый торрент трекер в рунете!

Как скачивать  ·   Что такое торрент  ·   Рейтинг и ограничения

Показать сообщения:    
Ответить на тему

Текущее время: Сегодня 16:12

Часовой пояс: GMT + 4



Вы не можете начинать темы
Вы не можете отвечать на сообщения
Вы не можете редактировать свои сообщения
Вы не можете удалять свои сообщения
Вы не можете голосовать в опросах
Вы не можете прикреплять файлы к сообщениям
Вы не можете скачивать файлы

▼ Вниз