ML
     
  Уважаемый Гость!
Вы можете поддержать проект и зарегистрироваться у наших партнеров - онлайн-стратегия MyLands. При регистрации в игре Вы получите код, который сможете активировать после регистрации на pirat.ca и получить 1000 дублонов.

Ваш код:
34514219cfad5497a1822ecc1269bea77988f9aa
 
     

Чемпионат Мира 2014 / FIFA 2014 / Бельгия - США / 1/8 финала [02.07.2014, Спорт 1 HD, Футбол, H.264, 50fps, HDTVRip/720p]

Ответить на тему
 
Автор
Сообщение

Пост 03-Июл-2014 09:35

[Q] 

UcrusPazzo

Чемпионат Мира 2014 / FIFA 2014
Бельгия - США / 1/8 финала
-Год выпуска: 02.07.2014
Вид спорта: Футбол
Участники: Бельгия - США
Продолжительность: 02:28:07
Комментарий: русский (Сергей Кривохарченко)-Автор рипа / записи: Striker
-Описание:
02 июля 2014 года, среда. 00:00 мск
1/8 финала
Стадион: Арена Фонте-Нова - Отавиу Мангабэйра (Салвадор, Бразилия) Зрителей: 51227 (вместимость – 52048)
Главный судья: Джамель Хаймуди (Релизан, Алжир); Ассистент: Редуане Ачик (Релизан, Марокко); Ассистент: Абделхалк Этшиали (Алжир)-Качество видео: HDTVRip
Контейнер: MKV
Видео кодек: H.264
Аудио кодек: AC3
Видео: 3975 Кбит/сек; 1280*720 (16:9); в 50,000 кадров/сек; 0.086 Бит/(Пиксели*Кадры); AVC
Аудио: 192 Кбит/сек; 48,0 КГц; 16 бит; 2 канала; АС-3
Бельгия
Вратари

1 Тибо Куртуа Атлетико Мадрид
12 Симон Миньоле Ливерпуль
13 Сэмми Боссют Зюлте-Варегем
Защитники
2 Тоби Алдервейрелд Атлетико Мадрид
3 Томас Вермален Арсенал
4 Венсан Компани (к) Манчестер Сити
5 Ян Вертонген Тоттенхэм Хотспур
15 Даниэль ван Бюйтен Бавария
18 Николас Ломбертс Зенит (Санкт-Петербург)
21 Энтони Ванден Борре Андерлехт
23 Лоран Симан Стандард
Полузащитники
6 Аксель Витсель Зенит (Санкт-Петербург)
7 Кевин де Брёйне Вольфсбург
8 Маруан Феллайни Манчестер Юнайтед
10 Эден Азар Челси
11 Кевин Миральяс Эвертон
16 Стивен Дефур Порту
19 Мусса Дембеле Тоттенхэм Хотспур
20 Аднан Янузай Манчестер Юнайтед
22 Насер Шадли Тоттенхэм Хотспур
Нападающие
9 Ромелу Лукаку Эвертон
14 Дрис Мертенс Наполи
17 Дивок Ориджи Лилль
Главный тренер Марк Вильмотс Бельгия-США
Вратари

1 Тим Ховард Эвертон
12 Брэд Гузан Астон Вилла
22 Ник Римандо Реал Солт-Лейк
Защитники
2 Деандре Йедлин Сиэтл Саундерс
3 Омар Гонсалес Лос-Анджелес Гэлакси
5 Мэтт Беслер Спортинг Канзас-Сити
6 Джон Брукс Герта (Берлин)
7 Дамаркус Бизли Пуэбла
20 Джефф Кэмерон Сток Сити
21 Тимоти Чендлер Нюрнберг
23 Фабиан Джонсон Хоффенхайм
Полузащитники
4 Майкл Брэдли Торонто
10 Миккел Дискеруд Русенборг
11 Алехандро Бедойя Нант
13 Джермейн Джонс Бешикташ
14 Брэд Дэвис Хьюстон Динамо
15 Кайл Бекерман Реал Солт-Лейк
16 Джулиан Грин Бавария
19 Грэм Зуси Спортинг Канзас-Сити
Нападающие
8 Клинт Демпси (к) Сиэтл Саундерс
9 Арон Юханнссон АЗ
17 Джози Алтидор Сандерленд
18 Крис Вондоловски Сан-Хосе Эртквейкс
Главный тренер Юрген Клинсман Германия
Общее
Уникальный идентификатор : 234703307831515456809909837419705894947 (0xB092367DFD46C5E7AA2787414FF18823)
Формат : Matroska
Версия формата : Version 4 / Version 2
Размер файла : 4,40 Гбайт
Продолжительность : 2 ч. 28 м.
Общий поток : 4251 Кбит/сек
Дата кодирования : UTC 2014-07-01 23:57:52
Программа кодирования : mkvmerge v7.0.0 ('Where We Going') 64bit built on Jun 9 2014 15:16:27
Библиотека кодирования : libebml v1.3.0 + libmatroska v1.4.1
Видео
Идентификатор : 1
Формат : AVC
Формат/Информация : Advanced Video Codec
Профиль формата : [email protected]
Параметр CABAC формата : Да
Параметр ReFrames формата : 4 кадра
Параметр GOP формата : M=2, N=15
Идентификатор кодека : V_MPEG4/ISO/AVC
Продолжительность : 2 ч. 28 м.
Битрейт : 3975 Кбит/сек
Ширина : 1280 пикселей
Высота : 720 пикселей
Соотношение сторон : 16:9
Режим частоты кадров : Постоянный
Частота кадров : 50,000 кадров/сек
Цветовое пространство : YUV
Субдискретизация насыщенности : 4:2:0
Битовая глубина : 8 бит
Тип развёртки : Прогрессивная
Бит/(Пиксели*Кадры) : 0.086
Размер потока : 4,11 Гбайт (93%)
Default : Да
Forced : Нет
Основные цвета : BT.709
Характеристики трансфера : BT.709
Коэффициенты матрицы : BT.709
DURATION : 02:28:07.340000000
NUMBER_OF_FRAMES : 444367
NUMBER_OF_BYTES : 4505751141
_STATISTICS_WRITING_APP : mkvmerge v7.0.0 ('Where We Going') 64bit built on Jun 9 2014 15:16:27
_STATISTICS_WRITING_DATE_UTC : 2014-07-01 23:57:52
_STATISTICS_TAGS : BPS DURATION NUMBER_OF_FRAMES NUMBER_OF_BYTES
Аудио
Идентификатор : 2
Формат : AC-3
Формат/Информация : Audio Coding 3
Расширение режима : CM (complete main)
Параметр Endianness формата : Big
Идентификатор кодека : A_AC3
Продолжительность : 2 ч. 28 м.
Вид битрейта : Постоянный
Битрейт : 192 Кбит/сек
Каналы : 2 канала
Расположение каналов : Front: L R
Частота : 48,0 КГц
Битовая глубина : 16 бит
Метод сжатия : С потерями
Размер потока : 203 Мбайт (5%)
Язык : Russian
Default : Да
Forced : Нет
DURATION : 02:28:07.304000000
NUMBER_OF_FRAMES : 277726
NUMBER_OF_BYTES : 213293568
_STATISTICS_WRITING_APP : mkvmerge v7.0.0 ('Where We Going') 64bit built on Jun 9 2014 15:16:27
_STATISTICS_WRITING_DATE_UTC : 2014-07-01 23:57:52
_STATISTICS_TAGS : BPS DURATION NUMBER_OF_FRAMES NUMBER_OF_BYTES
Download / Скачать

Хотите скачать бесплатно? Зарегистрируйтесь на сайте (ссылка на регистрацию). Pirat.ca - самый быстрый торрент трекер в рунете!

Как скачивать  ·   Что такое торрент  ·   Рейтинг и ограничения

Показать сообщения:    
Ответить на тему

Текущее время: Сегодня 07:56

Часовой пояс: GMT + 4



Вы не можете начинать темы
Вы не можете отвечать на сообщения
Вы не можете редактировать свои сообщения
Вы не можете удалять свои сообщения
Вы не можете голосовать в опросах
Вы не можете прикреплять файлы к сообщениям
Вы не можете скачивать файлы

▼ Вниз