ML
     
  Уважаемый Гость!
Вы можете поддержать проект и зарегистрироваться у наших партнеров - онлайн-стратегия MyLands. При регистрации в игре Вы получите код, который сможете активировать после регистрации на pirat.ca и получить 1000 дублонов.

Ваш код:
ca44e9295b9b8527ba1c339c20494f70782efea6
 
     

Чемпионат Мира 2014 / FIFA 2014 / Франция - Германия / 1/4 финала [04.07.2014, Спорт 1 HD, Футбол, H.264, 50fps, HDTVRip/720p]

Ответить на тему
 
Автор
Сообщение

Пост 05-Июл-2014 12:50

[Q] 

UcrusPazzo

Чемпионат Мира 2014 / FIFA 2014
Франция - Германия / 1/4 финала
-Год выпуска: 04.07.2014
Вид спорта: Футбол
Участники: Франция - Германия
Продолжительность: 01:53:27
Комментарий: русский (Юрий Розанов)-Автор рипа / записи: Striker
-Описание:
04 июля 2014 года, пятница. 20:00 мск
1/4 финала
Стадион: Маракана - Марио Филью (Рио-де-Жанейро, Бразилия) Зрителей: 74738 (вместимость – 74738)
Главный судья: Нестор Питана (Корпус, Мисьонес, Аргентина); Ассистент: Эрнан Майдана (Буэнос-Айрес, Аргентина); Ассистент: Хуан Пабло Белатти (Аргентина)-Качество видео: HDTVRip
Контейнер: MKV
Видео кодек: H.264
Аудио кодек: AC3
Видео: 3985 Кбит/сек; 1280*720 (16:9); в 50,000 кадров/сек; 0.086 Бит/(Пиксели*Кадры); AVC
Аудио: 192 Кбит/сек; 48,0 КГц; 16 бит; 2 канала; АС-3
Франция
Вратари

1 Уго Льорис (к) Тоттенхэм Хотспур
16 Стефан Руффье[10] Сент-Этьен
23 Микаэль Ландро Бастия
Защитники
2 Матьё Дебюши Ньюкасл Юнайтед
3 Патрис Эвра Манчестер Юнайтед
4 Рафаэль Варан Реал Мадрид
5 Мамаду Сако Ливерпуль
13 Эльяким Мангала Порту
15 Бакари Санья Арсенал
17 Люка Динь Пари Сен-Жермен
21 Лоран Косельни Арсенал
Полузащитники
6 Йоан Кабай Пари Сен-Жермен
7 Реми Кабелля[11] Монпелье
8 Матьё Вальбуэна Марсель
11 Антуан Гризманн Реал Сосьедад
12 Рио Мавуба Лилль
14 Блез Матюиди Пари Сен-Жермен
18 Мусса Сиссоко Ньюкасл Юнайтед
19 Поль Погба Ювентус
22 Морган Шнедерлен[12] Саутгемптон
Нападающие
9 Оливье Жиру Арсенал
10 Карим Бензема Реал Мадрид
20 Лоик Реми Ньюкасл Юнайтед
Главный тренер Дидье Дешам Франция-Германия
Вратари

1 Мануэль Нойер Бавария
12 Рон-Роберт Цилер Ганновер 96
22 Роман Вайденфеллер Боруссия (Дортмунд)
Защитники
3 Маттиас Гинтер Фрайбург
4 Бенедикт Хёведес Шальке 04
5 Матс Хуммельс Боруссия (Дортмунд)
15 Эрик Дурм Боруссия (Дортмунд)
16 Филипп Лам (к) Бавария
17 Пер Мертезакер Арсенал
20 Жером Боатенг Бавария
21 Шкодран Мустафи[16] Сампдория
Полузащитники
2 Кевин Гросскройц Боруссия (Дортмунд)
6 Сами Хедира Реал Мадрид
7 Бастиан Швайнштайгер Бавария
8 Месут Озиль Арсенал
14 Юлиан Дракслер Шальке 04
18 Тони Кроос Бавария
19 Марио Гётце Бавария
23 Кристоф Крамер Боруссия (Мёнхенгладбах)
Нападающие
9 Андре Шюррле Челси
10 Лукас Подольски Арсенал
11 Мирослав Клозе Лацио
13 Томас Мюллер Бавария
Главный тренер Йоахим Лёв Германия
Общее
Уникальный идентификатор : 184949369635290059652827180031104745204 (0x8B23F3F268A791758565147FCADB7EF4)
Формат : Matroska
Версия формата : Version 4 / Version 2
Размер файла : 3,38 Гбайт
Продолжительность : 1 ч. 53 м.
Общий поток : 4262 Кбит/сек
Дата кодирования : UTC 2014-07-04 18:19:14
Программа кодирования : mkvmerge v7.0.0 ('Where We Going') 64bit built on Jun 9 2014 15:16:27
Библиотека кодирования : libebml v1.3.0 + libmatroska v1.4.1
Видео
Идентификатор : 1
Формат : AVC
Формат/Информация : Advanced Video Codec
Профиль формата : [email protected]
Параметр CABAC формата : Да
Параметр ReFrames формата : 4 кадра
Параметр GOP формата : M=2, N=15
Идентификатор кодека : V_MPEG4/ISO/AVC
Продолжительность : 1 ч. 53 м.
Битрейт : 3985 Кбит/сек
Ширина : 1280 пикселей
Высота : 720 пикселей
Соотношение сторон : 16:9
Режим частоты кадров : Постоянный
Частота кадров : 50,000 кадров/сек
Цветовое пространство : YUV
Субдискретизация насыщенности : 4:2:0
Битовая глубина : 8 бит
Тип развёртки : Прогрессивная
Бит/(Пиксели*Кадры) : 0.086
Размер потока : 3,16 Гбайт (94%)
Default : Да
Forced : Нет
Основные цвета : BT.709
Характеристики трансфера : BT.709
Коэффициенты матрицы : BT.709
DURATION : 01:53:27.060000000
NUMBER_OF_FRAMES : 340353
NUMBER_OF_BYTES : 3459975406
_STATISTICS_WRITING_APP : mkvmerge v7.0.0 ('Where We Going') 64bit built on Jun 9 2014 15:16:27
_STATISTICS_WRITING_DATE_UTC : 2014-07-04 18:19:14
_STATISTICS_TAGS : BPS DURATION NUMBER_OF_FRAMES NUMBER_OF_BYTES
Аудио
Идентификатор : 2
Формат : AC-3
Формат/Информация : Audio Coding 3
Расширение режима : CM (complete main)
Параметр Endianness формата : Big
Идентификатор кодека : A_AC3
Продолжительность : 1 ч. 53 м.
Вид битрейта : Постоянный
Битрейт : 192 Кбит/сек
Каналы : 2 канала
Расположение каналов : Front: L R
Частота : 48,0 КГц
Битовая глубина : 16 бит
Метод сжатия : С потерями
Размер потока : 156 Мбайт (5%)
Язык : Russian
Default : Да
Forced : Нет
DURATION : 01:53:27.024000000
NUMBER_OF_FRAMES : 212717
NUMBER_OF_BYTES : 163366656
_STATISTICS_WRITING_APP : mkvmerge v7.0.0 ('Where We Going') 64bit built on Jun 9 2014 15:16:27
_STATISTICS_WRITING_DATE_UTC : 2014-07-04 18:19:14
_STATISTICS_TAGS : BPS DURATION NUMBER_OF_FRAMES NUMBER_OF_BYTES
Download / Скачать

Хотите скачать бесплатно? Зарегистрируйтесь на сайте (ссылка на регистрацию). Pirat.ca - самый быстрый торрент трекер в рунете!

Как скачивать  ·   Что такое торрент  ·   Рейтинг и ограничения

Показать сообщения:    
Ответить на тему

Текущее время: Сегодня 16:17

Часовой пояс: GMT + 4



Вы не можете начинать темы
Вы не можете отвечать на сообщения
Вы не можете редактировать свои сообщения
Вы не можете удалять свои сообщения
Вы не можете голосовать в опросах
Вы не можете прикреплять файлы к сообщениям
Вы не можете скачивать файлы

▼ Вниз