ML
     
  Уважаемый Гость!
Вы можете поддержать проект и зарегистрироваться у наших партнеров - онлайн-стратегия MyLands. При регистрации в игре Вы получите код, который сможете активировать после регистрации на pirat.ca и получить 1000 дублонов.

Ваш код:
e93cd9e43017f251127f220889864c05934e61c6
 
     

Чемпионат Мира 2014 / FIFA 2014 / Бразилия - Колумбия / 1/4 финала [05.07.2014, Спорт 1 HD, Футбол, H.264, 50fps, HDTVRip/720p]

Ответить на тему
 
Автор
Сообщение

Пост 05-Июл-2014 12:59

[Q] 

UcrusPazzo

Чемпионат Мира 2014 / FIFA 2014
Бразилия - Колумбия / 1/4 финала
-Год выпуска: 05.07.2014
Вид спорта: Футбол
Участники: Бразилия - Колумбия
Продолжительность: 01:58:37
Комментарий: русский (Владимир Стогниенко)-Автор рипа / записи: Striker
-Описание:
05 июля 2014 года, суббота. 00:00 мск
1/4 финала
Стадион: Кастелан (Форталеза, Бразилия) Зрителей: 60342 (вместимость – 60342)
Главный судья: Карлос Веласко Карбальо (Мадрид, Испания); Ассистент: Роберто Алонсо Фернандес (Испания); Ассистент: Хуан Юсте Хименес (Алькоркон, Испания)-Качество видео: HDTVRip
Контейнер: MKV
Видео кодек: H.264
Аудио кодек: AC3
Видео: 3957 Кбит/сек; 1280*720 (16:9); в 50,000 кадров/сек; 0.086 Бит/(Пиксели*Кадры); AVC
Аудио: 192 Кбит/сек; 48,0 КГц; 16 бит; 2 канала; АС-3
Бразилия
Вратари
1 Джефферсон Ботафого
12 Жулио Сезар Торонто
22 Виктор Атлетико Минейро
Защитники
2 Дани Алвес Барселона
3 Тиаго Силва (к) Пари Сен-Жермен
4 Давид Луис Челси[2]
6 Марсело Реал Мадрид
13 Данте Бавария
14 Максвелл Пари Сен-Жермен
15 Энрике Наполи
23 Майкон Рома
Полузащитники
5 Фернандиньо Манчестер Сити
8 Паулиньо Тоттенхэм Хотспур
11 Оскар Челси
16 Рамирес Челси
17 Луис Густаво Вольфсбург
18 Эрнанес Интернационале
19 Виллиан Челси
Нападающие
7 Халк Зенит (Санкт-Петербург)
9 Фред Флуминенсе
10 Неймар Барселона
20 Бернард Шахтёр (Донецк)
21 Жо Атлетико Минейро
Главный тренер Луис Фелипе Сколари Бразилия-Колумбия
Вратари

1 Давид Оспина Ницца
12 Камило Варгас Санта-Фе
22 Фарид Мондрагон Депортиво Кали
Защитники
2 Кристиан Сапата Милан
3 Марио Йепес (к) Аталанта
4 Сантьяго Ариас ПСВ
7 Пабло Армеро Вест Хэм Юнайтед
16 Эдер Альварес Ривер Плейт
18 Хуан Суньига Наполи
23 Карлос Вальдес Сан-Лоренсо
Полузащитники
5 Карлос Карбонеро[7] Ривер Плейт
6 Карлос Санчес Эльче
8 Абель Агилар Тулуза
10 Хамес Родригес Монако
11 Хуан Куадрадо Фиорентина
13 Фредди Гуарин Интернационале
15 Александр Мехия Атлетико Насьональ
20 Хуан Кинтеро Порту
Нападающие
9 Теофило Гутьеррес Ривер Плейт
14 Виктор Ибарбо Кальяри
17 Карлос Бакка Севилья
19 Адриан Рамос Боруссия (Дортмунд)
21 Джексон Мартинес Порту
Главный тренер Хосе Пекерман Аргентина
Общее
Уникальный идентификатор : 215342416699397808616089813522823407102 (0xA20170DC51C937228D59F301EA8A65FE)
Формат : Matroska
Версия формата : Version 4 / Version 2
Размер файла : 3,51 Гбайт
Продолжительность : 1 ч. 58 м.
Общий поток : 4233 Кбит/сек
Дата кодирования : UTC 2014-07-04 22:47:23
Программа кодирования : mkvmerge v7.0.0 ('Where We Going') 64bit built on Jun 9 2014 15:16:27
Библиотека кодирования : libebml v1.3.0 + libmatroska v1.4.1
Видео
Идентификатор : 1
Формат : AVC
Формат/Информация : Advanced Video Codec
Профиль формата : [email protected]
Параметр CABAC формата : Да
Параметр ReFrames формата : 4 кадра
Параметр GOP формата : M=2, N=15
Идентификатор кодека : V_MPEG4/ISO/AVC
Продолжительность : 1 ч. 58 м.
Битрейт : 3957 Кбит/сек
Ширина : 1280 пикселей
Высота : 720 пикселей
Соотношение сторон : 16:9
Режим частоты кадров : Постоянный
Частота кадров : 50,000 кадров/сек
Цветовое пространство : YUV
Субдискретизация насыщенности : 4:2:0
Битовая глубина : 8 бит
Тип развёртки : Прогрессивная
Бит/(Пиксели*Кадры) : 0.086
Размер потока : 3,28 Гбайт (93%)
Default : Да
Forced : Нет
Основные цвета : BT.709
Характеристики трансфера : BT.709
Коэффициенты матрицы : BT.709
DURATION : 01:58:36.860000000
NUMBER_OF_FRAMES : 355843
NUMBER_OF_BYTES : 3591936903
_STATISTICS_WRITING_APP : mkvmerge v7.0.0 ('Where We Going') 64bit built on Jun 9 2014 15:16:27
_STATISTICS_WRITING_DATE_UTC : 2014-07-04 22:47:23
_STATISTICS_TAGS : BPS DURATION NUMBER_OF_FRAMES NUMBER_OF_BYTES
Аудио
Идентификатор : 2
Формат : AC-3
Формат/Информация : Audio Coding 3
Расширение режима : CM (complete main)
Параметр Endianness формата : Big
Идентификатор кодека : A_AC3
Продолжительность : 1 ч. 58 м.
Вид битрейта : Постоянный
Битрейт : 192 Кбит/сек
Каналы : 2 канала
Расположение каналов : Front: L R
Частота : 48,0 КГц
Битовая глубина : 16 бит
Метод сжатия : С потерями
Размер потока : 163 Мбайт (5%)
Язык : Russian
Default : Да
Forced : Нет
DURATION : 01:58:36.824000000
NUMBER_OF_FRAMES : 222397
NUMBER_OF_BYTES : 170800896
_STATISTICS_WRITING_APP : mkvmerge v7.0.0 ('Where We Going') 64bit built on Jun 9 2014 15:16:27
_STATISTICS_WRITING_DATE_UTC : 2014-07-04 22:47:23
_STATISTICS_TAGS : BPS DURATION NUMBER_OF_FRAMES NUMBER_OF_BYTES
Download / Скачать

Хотите скачать бесплатно? Зарегистрируйтесь на сайте (ссылка на регистрацию). Pirat.ca - самый быстрый торрент трекер в рунете!

Как скачивать  ·   Что такое торрент  ·   Рейтинг и ограничения

Показать сообщения:    
Ответить на тему

Текущее время: Сегодня 04:25

Часовой пояс: GMT + 4



Вы не можете начинать темы
Вы не можете отвечать на сообщения
Вы не можете редактировать свои сообщения
Вы не можете удалять свои сообщения
Вы не можете голосовать в опросах
Вы не можете прикреплять файлы к сообщениям
Вы не можете скачивать файлы

▼ Вниз