ML
     
  Уважаемый Гость!
Вы можете поддержать проект и зарегистрироваться у наших партнеров - онлайн-стратегия MyLands. При регистрации в игре Вы получите код, который сможете активировать после регистрации на pirat.ca и получить 1000 дублонов.

Ваш код:
0ea1bf889af42fca5f67d0a391efb3400850ad7c
 
     

Чемпионат Мира 2014 / FIFA 2014 / Аргентина - Бельгия / 1/4 финала [05.07.2014, Спорт 1 HD, Футбол, H.264, 50fps, HDTVRip/720p]

Ответить на тему
 
Автор
Сообщение

Пост 08-Июл-2014 23:28

[Q] 

UcrusPazzo

Чемпионат Мира 2014 / FIFA 2014
Аргентина - Бельгия / 1/4 финала
-Год выпуска: 05.07.2014
Вид спорта: Футбол
Участники: Аргентина - Бельгия
Продолжительность: 01:49:34
Комментарий: русский (Юрий Розанов)-Автор рипа / записи: Striker
-Описание:
05 июля 2014 года, суббота. 20:00 мск
1/4 финала
Стадион: Манэ Гарринча - Национальный (Бразилиа, Бразилия)
Главный судья: Никола Риццоли (Болонья, Италия); Ассистент: Ренато Фаверани (Пантильяте, Италия); Ассистент: Андреа Стефани (Милан, Италия)-Качество видео: HDTVRip
Контейнер: MKV
Видео кодек: H.264
Аудио кодек: AC3
Видео: 3992 Кбит/сек; 1280*720 (16:9); в 50,000 кадров/сек; 0.087 Бит/(Пиксели*Кадры); AVC
Аудио: 192 Кбит/сек; 48,0 КГц; 16 бит; 2 канала; АС-3
Аргентина
Вратари

1 Серхио Ромеро Монако
12 Агустин Орион Бока Хуниорс
21 Мариано Андухар Катания
Защитники
2 Эсекьель Гарай Бенфика[14]
3 Уго Кампаньяро Интернационале
4 Пабло Сабалета Манчестер Сити
15 Мартин Демикелис Манчестер Сити
16 Маркос Рохо Спортинг
17 Федерико Фернандес Наполи
23 Хосе Басанта Монтеррей
Полузащитники
5 Фернандо Гаго Бока Хуниорс
6 Лукас Билья Лацио
7 Анхель Ди Мария Реал Мадрид
8 Энцо Перес Бенфика
11 Макси Родригес Ньюэллс Олд Бойз
13 Аугусто Фернандес Сельта
14 Хавьер Маскерано Барселона
19 Рикардо Альварес Интернационале
Нападающие
9 Гонсало Игуаин Наполи
10 Лионель Месси (к) Барселона
18 Родриго Паласио Интернационале
20 Серхио Агуэро Манчестер Сити
22 Эсекьель Лавесси Пари Сен-Жермен
Главный тренер Алехандро Сабелья Аргентина-Бельгия
Вратари

1 Тибо Куртуа Атлетико Мадрид
12 Симон Миньоле Ливерпуль
13 Сэмми Боссют Зюлте-Варегем
Защитники
2 Тоби Алдервейрелд Атлетико Мадрид
3 Томас Вермален Арсенал
4 Венсан Компани (к) Манчестер Сити
5 Ян Вертонген Тоттенхэм Хотспур
15 Даниэль ван Бюйтен Бавария
18 Николас Ломбертс Зенит (Санкт-Петербург)
21 Энтони Ванден Борре Андерлехт
23 Лоран Симан Стандард
Полузащитники
6 Аксель Витсель Зенит (Санкт-Петербург)
7 Кевин де Брёйне Вольфсбург
8 Маруан Феллайни Манчестер Юнайтед
10 Эден Азар Челси
11 Кевин Миральяс Эвертон
16 Стивен Дефур Порту
19 Мусса Дембеле Тоттенхэм Хотспур
20 Аднан Янузай Манчестер Юнайтед
22 Насер Шадли Тоттенхэм Хотспур
Нападающие
9 Ромелу Лукаку Эвертон
14 Дрис Мертенс Наполи
17 Дивок Ориджи Лилль
Главный тренер Марк Вильмотс Бельгия
Общее
Уникальный идентификатор : 212555743962184521138489028638031887827 (0x9FE8BF4978904E5086B24FF8266A3DD3)
Формат : Matroska
Версия формата : Version 4 / Version 2
Размер файла : 3,27 Гбайт
Продолжительность : 1 ч. 49 м.
Общий поток : 4269 Кбит/сек
Дата кодирования : UTC 2014-07-05 18:18:26
Программа кодирования : mkvmerge v7.0.0 ('Where We Going') 64bit built on Jun 9 2014 15:16:27
Библиотека кодирования : libebml v1.3.0 + libmatroska v1.4.1
Видео
Идентификатор : 1
Формат : AVC
Формат/Информация : Advanced Video Codec
Профиль формата : [email protected]
Параметр CABAC формата : Да
Параметр ReFrames формата : 4 кадра
Параметр GOP формата : M=2, N=15
Идентификатор кодека : V_MPEG4/ISO/AVC
Продолжительность : 1 ч. 49 м.
Битрейт : 3992 Кбит/сек
Ширина : 1280 пикселей
Высота : 720 пикселей
Соотношение сторон : 16:9
Режим частоты кадров : Постоянный
Частота кадров : 50,000 кадров/сек
Цветовое пространство : YUV
Субдискретизация насыщенности : 4:2:0
Битовая глубина : 8 бит
Тип развёртки : Прогрессивная
Бит/(Пиксели*Кадры) : 0.087
Размер потока : 3,06 Гбайт (94%)
Default : Да
Forced : Нет
Основные цвета : BT.709
Характеристики трансфера : BT.709
Коэффициенты матрицы : BT.709
DURATION : 01:49:34.480000000
NUMBER_OF_FRAMES : 328724
NUMBER_OF_BYTES : 3347738535
_STATISTICS_WRITING_APP : mkvmerge v7.0.0 ('Where We Going') 64bit built on Jun 9 2014 15:16:27
_STATISTICS_WRITING_DATE_UTC : 2014-07-05 18:18:26
_STATISTICS_TAGS : BPS DURATION NUMBER_OF_FRAMES NUMBER_OF_BYTES
Аудио
Идентификатор : 2
Формат : AC-3
Формат/Информация : Audio Coding 3
Расширение режима : CM (complete main)
Параметр Endianness формата : Big
Идентификатор кодека : A_AC3
Продолжительность : 1 ч. 49 м.
Вид битрейта : Постоянный
Битрейт : 192 Кбит/сек
Каналы : 2 канала
Расположение каналов : Front: L R
Частота : 48,0 КГц
Битовая глубина : 16 бит
Метод сжатия : С потерями
Размер потока : 150 Мбайт (4%)
Язык : Russian
Default : Да
Forced : Нет
DURATION : 01:49:34.444000000
NUMBER_OF_FRAMES : 205448
NUMBER_OF_BYTES : 157784064
_STATISTICS_WRITING_APP : mkvmerge v7.0.0 ('Where We Going') 64bit built on Jun 9 2014 15:16:27
_STATISTICS_WRITING_DATE_UTC : 2014-07-05 18:18:26
_STATISTICS_TAGS : BPS DURATION NUMBER_OF_FRAMES NUMBER_OF_BYTES
Download / Скачать

Хотите скачать бесплатно? Зарегистрируйтесь на сайте (ссылка на регистрацию). Pirat.ca - самый быстрый торрент трекер в рунете!

Как скачивать  ·   Что такое торрент  ·   Рейтинг и ограничения

Показать сообщения:    
Ответить на тему

Текущее время: Сегодня 00:38

Часовой пояс: GMT + 4



Вы не можете начинать темы
Вы не можете отвечать на сообщения
Вы не можете редактировать свои сообщения
Вы не можете удалять свои сообщения
Вы не можете голосовать в опросах
Вы не можете прикреплять файлы к сообщениям
Вы не можете скачивать файлы

▼ Вниз