ML
     
  Уважаемый Гость!
Вы можете поддержать проект и зарегистрироваться у наших партнеров - онлайн-стратегия MyLands. При регистрации в игре Вы получите код, который сможете активировать после регистрации на pirat.ca и получить 1000 дублонов.

Ваш код:
0af2e2107bc9b5dd5ac2c09f9fc25e1a77c43887
 
     

Чемпионат Мира 2014 / FIFA 2014 / Голландия (Нидерланды) - Коста-Рика / 1/4 финала [06.07.2014, Спорт 1 HD, Футбол, H.264, 50fps, HDTVRip/720p]

Ответить на тему
 
Автор
Сообщение

Пост 08-Июл-2014 23:37

[Q] 

UcrusPazzo

Чемпионат Мира 2014 / FIFA 2014
Голландия (Нидерланды) - Коста-Рика / 1/4 финала
-Год выпуска: 06.07.2014
Вид спорта: Футбол
Участники: Голландия (Нидерланды) - Коста-Рика
Продолжительность: 02:49:21
Комментарий: русский (Юрий Розанов)-Автор рипа / записи: Striker
-Описание:
06 июля 2014 года, воскресенье. 00:00 мск
1/4 финала
Стадион: Арена Фонте-Нова - Отавиу Мангабэйра (Салвадор, Бразилия) Зрителей: 51179 (вместимость – 52048)
Главный судья: Равшан Ирматов (Ташкент, Узбекистан); Ассистент: Абдухамидулло Расулов (Ташкент, Узбекистан); Ассистент: Бахадыр Кочкаров (Киргизия)-Качество видео: HDTVRip
Контейнер: MKV
Видео кодек: H.264
Аудио кодек: AC3
Видео: 3978 Кбит/сек; 1280*720 (16:9); в 50,000 кадров/сек; 0.086 Бит/(Пиксели*Кадры); AVC
Аудио: 192 Кбит/сек; 48,0 КГц; 16 бит; 2 канала; АС-3
Нидерланды
Вратари
1 Яспер Силлессен Аякс
22 Мишел Ворм Суонси Сити
23 Тим Крул Ньюкасл Юнайтед
Защитники
2 Рон Влар Астон Вилла
3 Стефан де Врей Фейеноорд
4 Бруну Мартинс Инди Фейеноорд
5 Дейли Блинд Аякс
7 Дэрил Янмат Фейеноорд
12 Паул Верхаг Аугсбург
13 Джоэл Велтман Аякс
14 Теренс Конголо Фейеноорд
Полузащитники
6 Найджел де Йонг Милан
8 Джонатан де Гузман Суонси Сити
10 Уэсли Снейдер Галатасарай
11 Арьен Роббен Бавария
16 Йорди Класи Фейеноорд
18 Лерой Фер Норвич Сити
20 Джорджиньо Вейналдум ПСВ
21 Мемфис Депай ПСВ
Нападающие
9 Робин ван Перси (к) Манчестер Юнайтед
15 Дирк Кёйт Фенербахче
17 Джермейн Ленс Динамо (Киев)
19 Клас-Ян Хюнтелар Шальке 04
Главный тренер Луи ван Гал Нидерланды-Коста-Рика
Вратари

1 Кейлор Навас Леванте
18 Патрик Пембертон Алахуэленсе
23 Даниэль Камбронеро Эредиано
Защитники
2 Джонни Акоста Алахуэленсе
3 Джанкарло Гонсалес Коламбус Крю
4 Майкл Уманья Саприсса
6 Оскар Дуарте Брюгге
8 Давид Майри[8] Эредиано
12 Уэйлон Фрэнсис Коламбус Крю
15 Хуниор Диас Майнц 05
16 Кристиан Гамбоа Русенборг
19 Рой Миллер Нью-Йорк Ред Буллз
Полузащитники
5 Сельсо Борхес АИК
7 Кристиан Боланьос Копенгаген
11 Микаэль Баррантес Олесунн
13 Эстебан Гранадос Эредиано
17 Ельцин Техеда Саприсса
20 Диего Кальво Волеренга
22 Хосе Мигель Куберо Эредиано
Нападающие
9 Хоэль Кэмпбелл Олимпиакос (Пирей)
10 Брайан Руис (к) ПСВ
14 Рэндалл Бренес Картагинес
21 Маркос Уренья Кубань
Главный тренер Хорхе Луис Пинто Колумбия
Общее
Уникальный идентификатор : 228309245954519261759000423958902894942 (0xABC2C2E6F1B3193A89C0F233196A715E)
Формат : Matroska
Версия формата : Version 4 / Version 2
Размер файла : 5,03 Гбайт
Продолжительность : 2 ч. 49 м.
Общий поток : 4255 Кбит/сек
Дата кодирования : UTC 2014-07-05 23:34:44
Программа кодирования : mkvmerge v7.0.0 ('Where We Going') 64bit built on Jun 9 2014 15:16:27
Библиотека кодирования : libebml v1.3.0 + libmatroska v1.4.1
Видео
Идентификатор : 1
Формат : AVC
Формат/Информация : Advanced Video Codec
Профиль формата : [email protected]
Параметр CABAC формата : Да
Параметр ReFrames формата : 4 кадра
Параметр GOP формата : M=2, N=15
Идентификатор кодека : V_MPEG4/ISO/AVC
Продолжительность : 2 ч. 49 м.
Битрейт : 3978 Кбит/сек
Ширина : 1280 пикселей
Высота : 720 пикселей
Соотношение сторон : 16:9
Режим частоты кадров : Постоянный
Частота кадров : 50,000 кадров/сек
Цветовое пространство : YUV
Субдискретизация насыщенности : 4:2:0
Битовая глубина : 8 бит
Тип развёртки : Прогрессивная
Бит/(Пиксели*Кадры) : 0.086
Размер потока : 4,71 Гбайт (93%)
Default : Да
Forced : Нет
Основные цвета : BT.709
Характеристики трансфера : BT.709
Коэффициенты матрицы : BT.709
DURATION : 02:49:21.480000000
NUMBER_OF_FRAMES : 508074
NUMBER_OF_BYTES : 5156862142
_STATISTICS_WRITING_APP : mkvmerge v7.0.0 ('Where We Going') 64bit built on Jun 9 2014 15:16:27
_STATISTICS_WRITING_DATE_UTC : 2014-07-05 23:34:44
_STATISTICS_TAGS : BPS DURATION NUMBER_OF_FRAMES NUMBER_OF_BYTES
Аудио
Идентификатор : 2
Формат : AC-3
Формат/Информация : Audio Coding 3
Расширение режима : CM (complete main)
Параметр Endianness формата : Big
Идентификатор кодека : A_AC3
Продолжительность : 2 ч. 49 м.
Вид битрейта : Постоянный
Битрейт : 192 Кбит/сек
Каналы : 2 канала
Расположение каналов : Front: L R
Частота : 48,0 КГц
Битовая глубина : 16 бит
Метод сжатия : С потерями
Размер потока : 233 Мбайт (5%)
Язык : Russian
Default : Да
Forced : Нет
DURATION : 02:49:21.444000000
NUMBER_OF_FRAMES : 317543
NUMBER_OF_BYTES : 243873024
_STATISTICS_WRITING_APP : mkvmerge v7.0.0 ('Where We Going') 64bit built on Jun 9 2014 15:16:27
_STATISTICS_WRITING_DATE_UTC : 2014-07-05 23:34:44
_STATISTICS_TAGS : BPS DURATION NUMBER_OF_FRAMES NUMBER_OF_BYTES
Download / Скачать

Хотите скачать бесплатно? Зарегистрируйтесь на сайте (ссылка на регистрацию). Pirat.ca - самый быстрый торрент трекер в рунете!

Как скачивать  ·   Что такое торрент  ·   Рейтинг и ограничения

Показать сообщения:    
Ответить на тему

Текущее время: Сегодня 00:03

Часовой пояс: GMT + 4



Вы не можете начинать темы
Вы не можете отвечать на сообщения
Вы не можете редактировать свои сообщения
Вы не можете удалять свои сообщения
Вы не можете голосовать в опросах
Вы не можете прикреплять файлы к сообщениям
Вы не можете скачивать файлы

▼ Вниз