ML
     
  Уважаемый Гость!
Вы можете поддержать проект и зарегистрироваться у наших партнеров - онлайн-стратегия MyLands. При регистрации в игре Вы получите код, который сможете активировать после регистрации на pirat.ca и получить 1000 дублонов.

Ваш код:
5f4e94775bc0501caff7b254e79328d304c817d9
 
     

Чемпионат Мира 2014 / FIFA 2014 / Бразилия - Германия / 1/2 финала [09.07.2014, Спорт 1 HD, Футбол, H.264, 50fps, HDTVRip/720p]

Ответить на тему
 
Автор
Сообщение

Пост 09-Июл-2014 16:23

[Q] 

UcrusPazzo

Чемпионат Мира 2014 / FIFA 2014
Бразилия - Германия / 1/2 финала
-Год выпуска: 09.07.2014
Вид спорта: Футбол
Участники: Бразилия - Германия
Продолжительность: 01:57:42
Комментарий: русский (Владимир Стогниенко)-Автор рипа / записи: Striker
-Описание:
09 июля 2014 года, среда. 00:00 мск
1/2 финала
Стадион: Минейрао - Губернатор Магальянс Пинту (Белу-Оризонти, Бразилия) Зрителей: 58141 (вместимость – 58170)
Главный судья: Марко Родригес Морено (Мехико, Мексика); Ассистент: Марвин Торрентера (Мексика); Ассистент: Марк Гейгер (Бичвуд, Нью-Джерси, США)-Качество видео: HDTVRip
Контейнер: MKV
Видео кодек: H.264
Аудио кодек: AC3
Видео: 3960 Кбит/сек; 1280*720 (16:9); в 50,000 кадров/сек; 0.086 Бит/(Пиксели*Кадры); AVC
Аудио: 192 Кбит/сек; 48,0 КГц; 16 бит; 2 канала; АС-3
Бразилия
Вратари
1 Джефферсон Ботафого
12 Жулио Сезар Торонто
22 Виктор Атлетико Минейро
Защитники
2 Дани Алвес Барселона
3 Тиаго Силва (к) Пари Сен-Жермен
4 Давид Луис Челси[2]
6 Марсело Реал Мадрид
13 Данте Бавария
14 Максвелл Пари Сен-Жермен
15 Энрике Наполи
23 Майкон Рома
Полузащитники
5 Фернандиньо Манчестер Сити
8 Паулиньо Тоттенхэм Хотспур
11 Оскар Челси
16 Рамирес Челси
17 Луис Густаво Вольфсбург
18 Эрнанес Интернационале
19 Виллиан Челси
Нападающие
7 Халк Зенит (Санкт-Петербург)
9 Фред Флуминенсе
10 Неймар Барселона
20 Бернард Шахтёр (Донецк)
21 Жо Атлетико Минейро
Главный тренер Луис Фелипе Сколари Бразилия-Германия
Вратари

1 Мануэль Нойер Бавария
12 Рон-Роберт Цилер Ганновер 96
22 Роман Вайденфеллер Боруссия (Дортмунд)
Защитники
3 Маттиас Гинтер Фрайбург
4 Бенедикт Хёведес Шальке 04
5 Матс Хуммельс Боруссия (Дортмунд)
15 Эрик Дурм Боруссия (Дортмунд)
16 Филипп Лам (к) Бавария
17 Пер Мертезакер Арсенал
20 Жером Боатенг Бавария
21 Шкодран Мустафи[16] Сампдория
Полузащитники
2 Кевин Гросскройц Боруссия (Дортмунд)
6 Сами Хедира Реал Мадрид
7 Бастиан Швайнштайгер Бавария
8 Месут Озиль Арсенал
14 Юлиан Дракслер Шальке 04
18 Тони Кроос Бавария
19 Марио Гётце Бавария
23 Кристоф Крамер Боруссия (Мёнхенгладбах)
Нападающие
9 Андре Шюррле Челси
10 Лукас Подольски Арсенал
11 Мирослав Клозе Лацио
13 Томас Мюллер Бавария
Главный тренер Йоахим Лёв Германия
Общее
Уникальный идентификатор : 193580917128409253183510073900263500666 (0x91A254184F967400939A6865A8036B7A)
Формат : Matroska
Версия формата : Version 4 / Version 2
Размер файла : 3,48 Гбайт
Продолжительность : 1 ч. 57 м.
Общий поток : 4236 Кбит/сек
Дата кодирования : UTC 2014-07-08 22:22:00
Программа кодирования : mkvmerge v7.0.0 ('Where We Going') 64bit built on Jun 9 2014 15:16:27
Библиотека кодирования : libebml v1.3.0 + libmatroska v1.4.1
Видео
Идентификатор : 1
Формат : AVC
Формат/Информация : Advanced Video Codec
Профиль формата : [email protected]
Параметр CABAC формата : Да
Параметр ReFrames формата : 4 кадра
Параметр GOP формата : M=2, N=15
Идентификатор кодека : V_MPEG4/ISO/AVC
Продолжительность : 1 ч. 57 м.
Битрейт : 3960 Кбит/сек
Ширина : 1280 пикселей
Высота : 720 пикселей
Соотношение сторон : 16:9
Режим частоты кадров : Постоянный
Частота кадров : 50,000 кадров/сек
Цветовое пространство : YUV
Субдискретизация насыщенности : 4:2:0
Битовая глубина : 8 бит
Тип развёртки : Прогрессивная
Бит/(Пиксели*Кадры) : 0.086
Размер потока : 3,26 Гбайт (93%)
Default : Да
Forced : Нет
Основные цвета : BT.709
Характеристики трансфера : BT.709
Коэффициенты матрицы : BT.709
DURATION : 01:57:41.740000000
NUMBER_OF_FRAMES : 353087
NUMBER_OF_BYTES : 3566979401
_STATISTICS_WRITING_APP : mkvmerge v7.0.0 ('Where We Going') 64bit built on Jun 9 2014 15:16:27
_STATISTICS_WRITING_DATE_UTC : 2014-07-08 22:22:00
_STATISTICS_TAGS : BPS DURATION NUMBER_OF_FRAMES NUMBER_OF_BYTES
Аудио
Идентификатор : 2
Формат : AC-3
Формат/Информация : Audio Coding 3
Расширение режима : CM (complete main)
Параметр Endianness формата : Big
Идентификатор кодека : A_AC3
Продолжительность : 1 ч. 57 м.
Вид битрейта : Постоянный
Битрейт : 192 Кбит/сек
Каналы : 2 канала
Расположение каналов : Front: L R
Частота : 48,0 КГц
Битовая глубина : 16 бит
Метод сжатия : С потерями
Размер потока : 162 Мбайт (5%)
Язык : Russian
Default : Да
Forced : Нет
DURATION : 01:57:41.704000000
NUMBER_OF_FRAMES : 220675
NUMBER_OF_BYTES : 169478400
_STATISTICS_WRITING_APP : mkvmerge v7.0.0 ('Where We Going') 64bit built on Jun 9 2014 15:16:27
_STATISTICS_WRITING_DATE_UTC : 2014-07-08 22:22:00
_STATISTICS_TAGS : BPS DURATION NUMBER_OF_FRAMES NUMBER_OF_BYTES
Download / Скачать

Хотите скачать бесплатно? Зарегистрируйтесь на сайте (ссылка на регистрацию). Pirat.ca - самый быстрый торрент трекер в рунете!

Как скачивать  ·   Что такое торрент  ·   Рейтинг и ограничения

neibibit

Корсар

28

Пост 09-Июл-2014 20:39 (спустя 4 часа)

[Q] 

Какая боль. Я понимаю, но зачем же витрины бить.

_________________
Ром не пью. Устал.
[Профиль]  [ЛС] 

Сергей_Сергей

Корсар

Пост 09-Июл-2014 20:59 (спустя 19 минут)

[Q] 

Пиратка рулез!!!
[Профиль]  [ЛС] 

KoNiaL_KCC

Гроза морей

Пост 09-Июл-2014 22:58 (спустя 1 час 59 минут)

[Q] 

Спасибо!!! не успел посмотреть
[Профиль]  [ЛС] 

igorexa1111

Корсар

Пост 10-Июл-2014 18:44 (спустя 19 часов)

[Q] 

специально зазырю Вы лучшие!
[Профиль]  [ЛС] 

Tapac84

Корсар

Пост 12-Июл-2014 23:11 (спустя 2 дня 4 часа)

[Q] 

а посмотреть есть на что
[Профиль]  [ЛС] 

mishanya___

21467

Пост 12-Июл-2014 23:16 (спустя 5 минут)

[Q] 

Ну Вы поняли...
[Профиль]  [ЛС] 

yasheroff

Морской Волк

87

Пост 13-Июл-2014 14:40 (спустя 15 часов)

[Q] 

Бразилия проиграет со счетом 7:1. Приятного просмотра.
[Профиль]  [ЛС] 

Tapac84

Корсар

Пост 05-Сен-2014 01:23 (спустя 1 месяц 22 дня)

[Q] 

yasheroff, ты убил всю интригу )
[Профиль]  [ЛС] 

Han.M

Флибустьер

Пост 23-Ноя-2014 13:14 (спустя 2 месяца 18 дней)

[Q] 

Этот матч войдет в историю!
[Профиль]  [ЛС] 
Показать сообщения:    
Ответить на тему

Текущее время: Сегодня 15:34

Часовой пояс: GMT + 4



Вы не можете начинать темы
Вы не можете отвечать на сообщения
Вы не можете редактировать свои сообщения
Вы не можете удалять свои сообщения
Вы не можете голосовать в опросах
Вы не можете прикреплять файлы к сообщениям
Вы не можете скачивать файлы

▼ Вниз