ML
     
  Уважаемый Гость!
Вы можете поддержать проект и зарегистрироваться у наших партнеров - онлайн-стратегия MyLands. При регистрации в игре Вы получите код, который сможете активировать после регистрации на pirat.ca и получить 1000 дублонов.

Ваш код:
a01a592a88af5f9996a6d1baec61b18a1769954d
 
     

Чемпионат Мира 2014 / FIFA 2014 / Голландия (Нидерланды) - Аргентина / 1/2 финала [10.07.2014, Спорт 1 HD, Футбол, H.264, 50fps, HDTVRip/720p]

Ответить на тему
 
Автор
Сообщение

Пост 10-Июл-2014 10:09

[Q] 

UcrusPazzo

Чемпионат Мира 2014 / FIFA 2014
Голландия (Нидерланды) - Аргентина / 1/2 финала
-Год выпуска: 10.07.2014
Вид спорта: Футбол
Участники: Голландия (Нидерланды) - Аргентина
Продолжительность: 02:42:10
Комментарий: русский (Юрий Розанов)-Автор рипа / записи: Striker
-Описание:
10 июля 2014 года, четверг. 00:00 мск
1/2 финала
Стадион: Арена Сан-Паулу - Коринтианс (Сан-Паулу, Бразилия)
Главный судья: Джюнейт Чакыр (Стамбул, Турция); Ассистент: Бахаттин Дуран (Стамбул, Турция); Ассистент: Тарык Онгун (Стамбул, Турция)-Качество видео: HDTVRip
Контейнер: MKV
Видео кодек: H.264
Аудио кодек: AC3
Видео: 3968 Кбит/сек; 1280*720 (16:9); в 50,000 кадров/сек; 0.086 Бит/(Пиксели*Кадры); AVC
Аудио: 192 Кбит/сек; 48,0 КГц; 16 бит; 2 канала; АС-3
Нидерланды
Вратари
1 Яспер Силлессен Аякс
22 Мишел Ворм Суонси Сити
23 Тим Крул Ньюкасл Юнайтед
Защитники
2 Рон Влар Астон Вилла
3 Стефан де Врей Фейеноорд
4 Бруну Мартинс Инди Фейеноорд
5 Дейли Блинд Аякс
7 Дэрил Янмат Фейеноорд
12 Паул Верхаг Аугсбург
13 Джоэл Велтман Аякс
14 Теренс Конголо Фейеноорд
Полузащитники
6 Найджел де Йонг Милан
8 Джонатан де Гузман Суонси Сити
10 Уэсли Снейдер Галатасарай
11 Арьен Роббен Бавария
16 Йорди Класи Фейеноорд
18 Лерой Фер Норвич Сити
20 Джорджиньо Вейналдум ПСВ
21 Мемфис Депай ПСВ
Нападающие
9 Робин ван Перси (к) Манчестер Юнайтед
15 Дирк Кёйт Фенербахче
17 Джермейн Ленс Динамо (Киев)
19 Клас-Ян Хюнтелар Шальке 04
Главный тренер Луи ван Гал Нидерланды-Аргентина
Вратари

1 Серхио Ромеро Монако
12 Агустин Орион Бока Хуниорс
21 Мариано Андухар Катания
Защитники
2 Эсекьель Гарай Бенфика[14]
3 Уго Кампаньяро Интернационале
4 Пабло Сабалета Манчестер Сити
15 Мартин Демикелис Манчестер Сити
16 Маркос Рохо Спортинг
17 Федерико Фернандес Наполи
23 Хосе Басанта Монтеррей
Полузащитники
5 Фернандо Гаго Бока Хуниорс
6 Лукас Билья Лацио
7 Анхель Ди Мария Реал Мадрид
8 Энцо Перес Бенфика
11 Макси Родригес Ньюэллс Олд Бойз
13 Аугусто Фернандес Сельта
14 Хавьер Маскерано Барселона
19 Рикардо Альварес Интернационале
Нападающие
9 Гонсало Игуаин Наполи
10 Лионель Месси (к) Барселона
18 Родриго Паласио Интернационале
20 Серхио Агуэро Манчестер Сити
22 Эсекьель Лавесси Пари Сен-Жермен
Главный тренер Алехандро Сабелья Аргентина
Общее
Уникальный идентификатор : 199986906516103320676319747192225762278 (0x967413C1B4CF6D3388B5D976C59B8BE6)
Формат : Matroska
Версия формата : Version 4 / Version 2
Размер файла : 4,81 Гбайт
Продолжительность : 2 ч. 42 м.
Общий поток : 4244 Кбит/сек
Дата кодирования : UTC 2014-07-09 23:23:21
Программа кодирования : mkvmerge v7.0.0 ('Where We Going') 64bit built on Jun 9 2014 15:16:27
Библиотека кодирования : libebml v1.3.0 + libmatroska v1.4.1
Видео
Идентификатор : 1
Формат : AVC
Формат/Информация : Advanced Video Codec
Профиль формата : [email protected]
Параметр CABAC формата : Да
Параметр ReFrames формата : 4 кадра
Параметр GOP формата : M=2, N=15
Идентификатор кодека : V_MPEG4/ISO/AVC
Продолжительность : 2 ч. 42 м.
Битрейт : 3968 Кбит/сек
Ширина : 1280 пикселей
Высота : 720 пикселей
Соотношение сторон : 16:9
Режим частоты кадров : Постоянный
Частота кадров : 50,000 кадров/сек
Цветовое пространство : YUV
Субдискретизация насыщенности : 4:2:0
Битовая глубина : 8 бит
Тип развёртки : Прогрессивная
Бит/(Пиксели*Кадры) : 0.086
Размер потока : 4,49 Гбайт (93%)
Default : Да
Forced : Нет
Основные цвета : BT.709
Характеристики трансфера : BT.709
Коэффициенты матрицы : BT.709
DURATION : 02:42:09.620000000
NUMBER_OF_FRAMES : 486481
NUMBER_OF_BYTES : 4924381191
_STATISTICS_WRITING_APP : mkvmerge v7.0.0 ('Where We Going') 64bit built on Jun 9 2014 15:16:27
_STATISTICS_WRITING_DATE_UTC : 2014-07-09 23:23:21
_STATISTICS_TAGS : BPS DURATION NUMBER_OF_FRAMES NUMBER_OF_BYTES
Аудио
Идентификатор : 2
Формат : AC-3
Формат/Информация : Audio Coding 3
Расширение режима : CM (complete main)
Параметр Endianness формата : Big
Идентификатор кодека : A_AC3
Продолжительность : 2 ч. 42 м.
Вид битрейта : Постоянный
Битрейт : 192 Кбит/сек
Каналы : 2 канала
Расположение каналов : Front: L R
Частота : 48,0 КГц
Битовая глубина : 16 бит
Метод сжатия : С потерями
Размер потока : 223 Мбайт (5%)
Язык : Russian
Default : Да
Forced : Нет
DURATION : 02:42:09.584000000
NUMBER_OF_FRAMES : 304047
NUMBER_OF_BYTES : 233508096
_STATISTICS_WRITING_APP : mkvmerge v7.0.0 ('Where We Going') 64bit built on Jun 9 2014 15:16:27
_STATISTICS_WRITING_DATE_UTC : 2014-07-09 23:23:21
_STATISTICS_TAGS : BPS DURATION NUMBER_OF_FRAMES NUMBER_OF_BYTES
Download / Скачать

Хотите скачать бесплатно? Зарегистрируйтесь на сайте (ссылка на регистрацию). Pirat.ca - самый быстрый торрент трекер в рунете!

Как скачивать  ·   Что такое торрент  ·   Рейтинг и ограничения

Показать сообщения:    
Ответить на тему

Текущее время: Сегодня 09:47

Часовой пояс: GMT + 4



Вы не можете начинать темы
Вы не можете отвечать на сообщения
Вы не можете редактировать свои сообщения
Вы не можете удалять свои сообщения
Вы не можете голосовать в опросах
Вы не можете прикреплять файлы к сообщениям
Вы не можете скачивать файлы

▼ Вниз