ML
     
  Уважаемый Гость!
Вы можете поддержать проект и зарегистрироваться у наших партнеров - онлайн-стратегия MyLands. При регистрации в игре Вы получите код, который сможете активировать после регистрации на pirat.ca и получить 1000 дублонов.

Ваш код:
c3360d664ceb84802c84b88ed062a5d134e2ba97
 
     

Чемпионат Мира 2014 / FIFA 2014 / Германия - Аргентина / Финал [13.07.2014, Спорт 1 HD, Футбол, H.264, 50fps, HDTVRip/720p]

Ответить на тему
 
Автор
Сообщение

Пост 14-Июл-2014 09:04

[Q] 

UcrusPazzo

Чемпионат Мира 2014 / FIFA 2014
Германия - Аргентина / Финал
-Год выпуска: 13.07.2014
Вид спорта: Футбол
Участники: Германия - Аргентина
Продолжительность: 04:08:15
Комментарий: русский (Роман Трушечкин)-Автор рипа / записи: Striker
-Описание:
13 июля 2014, воскресенье. 23:00 мск
Финал
Стадион: Маракана - Марио Филью (Рио-де-Жанейро, Бразилия) , вместимость: 74738
Главный судья: Никола Риццоли (Болонья, Италия); Ассистент: Ренато Фаверани (Пантильяте, Италия); Ассистент: Андреа Стефани (Милан, Италия)-Качество видео: HDTVRip
Контейнер: MKV
Видео кодек: H.264
Аудио кодек: AC3
Видео: 3984 Кбит/сек; 1280*720 (16:9); в 50,000 кадров/сек; 0.086 Бит/(Пиксели*Кадры); AVC
Аудио: 192 Кбит/сек; 48,0 КГц; 16 бит; 2 канала; АС-3
Германия
Вратари

1 Мануэль Нойер Бавария
12 Рон-Роберт Цилер Ганновер 96
22 Роман Вайденфеллер Боруссия (Дортмунд)
Защитники
3 Маттиас Гинтер Фрайбург
4 Бенедикт Хёведес Шальке 04
5 Матс Хуммельс Боруссия (Дортмунд)
15 Эрик Дурм Боруссия (Дортмунд)
16 Филипп Лам (к) Бавария
17 Пер Мертезакер Арсенал
20 Жером Боатенг Бавария
21 Шкодран Мустафи[16] Сампдория
Полузащитники
2 Кевин Гросскройц Боруссия (Дортмунд)
6 Сами Хедира Реал Мадрид
7 Бастиан Швайнштайгер Бавария
8 Месут Озиль Арсенал
14 Юлиан Дракслер Шальке 04
18 Тони Кроос Бавария
19 Марио Гётце Бавария
23 Кристоф Крамер Боруссия (Мёнхенгладбах)
Нападающие
9 Андре Шюррле Челси
10 Лукас Подольски Арсенал
11 Мирослав Клозе Лацио
13 Томас Мюллер Бавария
Главный тренер Йоахим Лёв Германия-Аргентина
Вратари

1 Серхио Ромеро Монако
12 Агустин Орион Бока Хуниорс
21 Мариано Андухар Катания
Защитники
2 Эсекьель Гарай Бенфика[14]
3 Уго Кампаньяро Интернационале
4 Пабло Сабалета Манчестер Сити
15 Мартин Демикелис Манчестер Сити
16 Маркос Рохо Спортинг
17 Федерико Фернандес Наполи
23 Хосе Басанта Монтеррей
Полузащитники
5 Фернандо Гаго Бока Хуниорс
6 Лукас Билья Лацио
7 Анхель Ди Мария Реал Мадрид
8 Энцо Перес Бенфика
11 Макси Родригес Ньюэллс Олд Бойз
13 Аугусто Фернандес Сельта
14 Хавьер Маскерано Барселона
19 Рикардо Альварес Интернационале
Нападающие
9 Гонсало Игуаин Наполи
10 Лионель Месси (к) Барселона
18 Родриго Паласио Интернационале
20 Серхио Агуэро Манчестер Сити
22 Эсекьель Лавесси Пари Сен-Жермен
Главный тренер Алехандро Сабелья Аргентина
Общее
Уникальный идентификатор : 205039221589918486002696254518447956641 (0x9A411E1F3010C010B88974A7FDE1E2A1)
Формат : Matroska
Версия формата : Version 4 / Version 2
Размер файла : 7,39 Гбайт
Продолжительность : 4 ч. 8 м.
Общий поток : 4261 Кбит/сек
Дата кодирования : UTC 2014-07-13 23:31:44
Программа кодирования : mkvmerge v7.0.0 ('Where We Going') 64bit built on Jun 9 2014 15:16:27
Библиотека кодирования : libebml v1.3.0 + libmatroska v1.4.1
Видео
Идентификатор : 1
Формат : AVC
Формат/Информация : Advanced Video Codec
Профиль формата : [email protected]
Параметр CABAC формата : Да
Параметр ReFrames формата : 4 кадра
Параметр GOP формата : M=2, N=15
Идентификатор кодека : V_MPEG4/ISO/AVC
Продолжительность : 4 ч. 8 м.
Битрейт : 3984 Кбит/сек
Ширина : 1280 пикселей
Высота : 720 пикселей
Соотношение сторон : 16:9
Режим частоты кадров : Постоянный
Частота кадров : 50,000 кадров/сек
Цветовое пространство : YUV
Субдискретизация насыщенности : 4:2:0
Битовая глубина : 8 бит
Тип развёртки : Прогрессивная
Бит/(Пиксели*Кадры) : 0.086
Размер потока : 6,91 Гбайт (94%)
Default : Да
Forced : Нет
Основные цвета : BT.709
Характеристики трансфера : BT.709
Коэффициенты матрицы : BT.709
DURATION : 04:08:15.460000000
NUMBER_OF_FRAMES : 744773
NUMBER_OF_BYTES : 7569498493
_STATISTICS_WRITING_APP : mkvmerge v7.0.0 ('Where We Going') 64bit built on Jun 9 2014 15:16:27
_STATISTICS_WRITING_DATE_UTC : 2014-07-13 23:31:44
_STATISTICS_TAGS : BPS DURATION NUMBER_OF_FRAMES NUMBER_OF_BYTES
Аудио
Идентификатор : 2
Формат : AC-3
Формат/Информация : Audio Coding 3
Расширение режима : CM (complete main)
Параметр Endianness формата : Big
Идентификатор кодека : A_AC3
Продолжительность : 4 ч. 8 м.
Вид битрейта : Постоянный
Битрейт : 192 Кбит/сек
Каналы : 2 канала
Расположение каналов : Front: L R
Частота : 48,0 КГц
Битовая глубина : 16 бит
Метод сжатия : С потерями
Размер потока : 341 Мбайт (5%)
Язык : Russian
Default : Да
Forced : Нет
DURATION : 04:08:15.424000000
NUMBER_OF_FRAMES : 465477
NUMBER_OF_BYTES : 357486336
_STATISTICS_WRITING_APP : mkvmerge v7.0.0 ('Where We Going') 64bit built on Jun 9 2014 15:16:27
_STATISTICS_WRITING_DATE_UTC : 2014-07-13 23:31:44
_STATISTICS_TAGS : BPS DURATION NUMBER_OF_FRAMES NUMBER_OF_BYTES
Download / Скачать

Хотите скачать бесплатно? Зарегистрируйтесь на сайте (ссылка на регистрацию). Pirat.ca - самый быстрый торрент трекер в рунете!

Как скачивать  ·   Что такое торрент  ·   Рейтинг и ограничения

Показать сообщения:    
Ответить на тему

Текущее время: Сегодня 10:09

Часовой пояс: GMT + 4



Вы не можете начинать темы
Вы не можете отвечать на сообщения
Вы не можете редактировать свои сообщения
Вы не можете удалять свои сообщения
Вы не можете голосовать в опросах
Вы не можете прикреплять файлы к сообщениям
Вы не можете скачивать файлы

▼ Вниз