ML
     
  Уважаемый Гость!
Вы можете поддержать проект и зарегистрироваться у наших партнеров - онлайн-стратегия MyLands. При регистрации в игре Вы получите код, который сможете активировать после регистрации на pirat.ca и получить 1000 дублонов.

Ваш код:
5af7de75d3db09b6a37bc8bab71b0e87ccde73d6
 
     

100 голов Стивена Джеррарда за Ливерпуль / 100 Steven Gerrard goals for Liverpool [2008 г., Футбол, TVRip]

Ответить на тему
 
Автор
Сообщение

Пост 31-Окт-2011 20:22

[Q] 

Benjamin Craft

Морской Волк

100 голов Стивена Джеррарда за Ливерпуль / 100 Steven Gerrard goals for Liverpool
Вид спорта: Футбол
Участники: Стивен Джеррард / Steven Gerrard
Год: 2008
Язык комментариев: английский
Продолжительность: 00:43:18
Автор рипа: MicX
Описание: Величайшее достижение капитана Ливерпуля! А ведь он добился этого, когда ему было только 28 лет.
На счету Джеррарда голы в финалах Кубка УЕФА, Кубка Лиги, Кубка Англии и Лиги Чемпионов.
Доп. информация: На данный момент Стивен Джеррард провёл 577 матчей и забил 149 голов за Ливерпуль.
Источник/Качество: TVRip
Формат: AVI
Видео кодек: XviD
Аудио кодек: MP3
Видео: 592x336 (16:9), 25 fps, XviD build 47 ~2157 kbps avg, 0.43 bit/pixel
Аудио: 32 kHz, MPEG Layer 3, 2 ch, ~96.00 kbps avg
Общее
Полное имя: D:\Скач\торрент\Ливерпуль\Steven Gerrard\Steven Gerrard - 100 goals for Liverpool.avi
Формат: AVI
Формат/Информация: Audio Video Interleave
Размер файла: 700 Мбайт
Продолжительность: 43 м.
Общий поток: 2260 Кбит/сек
Программа кодирования: VirtualDubMod 1.5.4.1 (build 2178/release)
Библиотека кодирования: VirtualDubMod build 2178/release
Видео
Идентификатор: 0
Формат: MPEG-4 Visual
Профиль формата: Advanced [email protected]
Параметр BVOP формата: 1
Параметр QPel формата: Нет
Параметр GMC формата: Без точки перехода
Параметр матрицы формата: Выборочная
Идентификатор кодека: XVID
Идентификатор кодека/Подсказка: XviD
Продолжительность: 43 м.
Битрейт: 2157 Кбит/сек
Ширина: 592 пикселя
Высота: 336 пикселей
Соотношение сторон: 16:9
Частота кадров: 25,000 кадров/сек
Цветовое пространство: YUV
Субдискретизация насыщенности: 4:2:0
Битовая глубина: 8 бит
Тип развёртки: Прогрессивная
Метод сжатия: С потерями
Бит/(Пиксели*Кадры): 0.434
Размер потока: 668 Мбайт (95%)
Библиотека кодирования: XviD 1.2.0.dev47 (UTC 2006-11-01)
Аудио
Идентификатор: 1
Формат: MPEG Audio
Версия формата: Version 1
Профиль формата: Layer 3
Режим: Joint stereo
Расширение режима: MS Stereo
Идентификатор кодека: 55
Идентификатор кодека/Подсказка: MP3
Продолжительность: 43 м.
Вид битрейта: Постоянный
Битрейт: 96,0 Кбит/сек
Каналы: 2 канала
Частота: 32,0 КГц
Метод сжатия: С потерями
Размер потока: 29,7 Мбайт (4%)
Выравнивание: Соединение по промежуткам
Продолжительность промежутка: 80 мс. (2,00 видеокадра)
Время предзагрузки промежутка: 504 мс.
Библиотека кодирования: LAME3.97
Настройки программы: -m j -V 4 -q 2 -lowpass 15.1 -b 96
Язык: English




Download / Скачать

Хотите скачать бесплатно? Зарегистрируйтесь на сайте (ссылка на регистрацию). Pirat.ca - самый быстрый торрент трекер в рунете!

Как скачивать  ·   Что такое торрент  ·   Рейтинг и ограничения

superman22

Пост 15-Авг-2012 16:55 (спустя 9 месяцев 14 дней)

[Q] 

благодарю.
[Профиль]  [ЛС] 

qwerta28

Морской Волк

Пост 26-Янв-2013 17:00 (спустя 5 месяцев 11 дней)

[Q] 

Спасибо
[Профиль]  [ЛС] 
Показать сообщения:    
Ответить на тему

Текущее время: Сегодня 14:13

Часовой пояс: GMT + 4



Вы не можете начинать темы
Вы не можете отвечать на сообщения
Вы не можете редактировать свои сообщения
Вы не можете удалять свои сообщения
Вы не можете голосовать в опросах
Вы не можете прикреплять файлы к сообщениям
Вы не можете скачивать файлы

▼ Вниз