ML
     
  Уважаемый Гость!
Вы можете поддержать проект и зарегистрироваться у наших партнеров - онлайн-стратегия MyLands. При регистрации в игре Вы получите код, который сможете активировать после регистрации на pirat.ca и получить 1000 дублонов.

Ваш код:
5f4e94775bc0501caff7b254e79328d304c817d9
 
     

Стивен Джеррард: Моя история / Steven Gerrard: My Story (Футбол) [DVD5, PAL, 576p]

Ответить на тему
 
Автор
Сообщение

Пост 31-Окт-2011 20:28

[Q] 

Benjamin Craft

Морской Волк

Стивен Джеррард: Моя история / Steven Gerrard: My Story
Вид спорта: Футбол
Участники: Стивен Джеррард / Steven Gerrard
Год: 2005
Язык комментариев: английский / русский
Перевод: Профессиональный (одноголосый)
Продолжительность: 1:05:47
Описание: В мире совсем немного футболистов, которые оставляют настолько яркий след в истории, что ещё задолго до заката карьеры их можно с полным правом назвать живыми легендами. Стивен Джеррард - один из них. Этот потрясающий футболист добился в жизни всего, о чём мечтал с раннего детства.
Фильм рассказывает о всех этапах жизненного пути Стивена Джеррарда, начиная с его рождения до поднятия над головой Кубка Чемпионов. Вы убедитесь в том что звезда мирового уровня - на самом деле обычный парень, отличающийся от остальных только тем, что всю жизнь упорно трудился ради осуществления своей мечты - стать капитаном "Ливерпуля" и выиграть с командой всё, что возможно.
Вы увидете также все самые красивые голы и прекрасные передачи в его исполнении.
Доп. информация:
Производство компании PITCH. Великобритания.
Автор сценария и режисёр: Д. Спуни.
Режиссёр дубляжа: Алексей Богачёв.
Закадровый текст: Арег Оганесян.
Текст читал: Виктор Винитинский.
Дизайн: Степан Хачатрян.
Исполнительный продюсер: Пол Холленд.
Продюсер: Джон Харрисон.
Продюсер русской версии: Михаил Погосов.
Источник/Качество: DVD5
Формат DVD: PAL
Формат: DVD Video
Стандарт разрешения: 576p
Видео кодек: MPEG2
Аудио кодек: AC3
Видео: 720x576 (16:9), 25 fps, MPEG2 ~9000 kbps avg
Аудио: 48 kHz, AC3 Dolby Digital, 2 ch (stereo), ~224.00 kbps avg
DVDRip: Стивен Джеррард: Моя история / Steven Gerrard: My Story [2005, Футбол, DVDRip]
Общее
Полное имя: H:\\VIDEO_TS\VTS_03_1.VOB
Формат: MPEG-PS
Размер файла: 1000 Мбайт
Продолжительность: 16 м.
Режим общего битрейта: Переменный
Общий поток: 8398 Кбит/сек
Видео
Идентификатор: 224 (0xE0)
Формат: MPEG Video
Версия формата: Version 2
Профиль формата: [email protected]
Параметр BVOP формата: Да
Параметр матрицы формата: По умолчанию
Параметр GOP формата: M=3, N=12
Продолжительность: 16 м.
Вид битрейта: Переменный
Битрейт: 8007 Кбит/сек
Максимальный битрейт: 9000 Кбит/сек
Ширина: 720 пикселей
Высота: 576 пикселей
Соотношение сторон: 16:9
Частота кадров: 25,000 кадров/сек
Стандарт вещания: PAL
Цветовое пространство: YUV
Субдискретизация насыщенности: 4:2:0
Битовая глубина: 8 бит
Тип развёртки: Прогрессивная
Метод сжатия: С потерями
Бит/(Пиксели*Кадры): 0.772
Размер потока: 953 Мбайт (95%)
Аудио
Идентификатор: 189 (0xBD)-128 (0x80)
Формат: AC-3
Формат/Информация: Audio Coding 3
Расширение режима: CM (complete main)
Режим смешивания: DVD-Video
Продолжительность: 16 м.
Вид битрейта: Постоянный
Битрейт: 224 Кбит/сек
Каналы: 2 канала
Расположение каналов: Front: L R
Частота: 48,0 КГц
Битовая глубина: 16 бит
Метод сжатия: С потерями
Задержка видео: -80 мс.
Размер потока: 26,7 Мбайт (3%)





Download / Скачать

Хотите скачать бесплатно? Зарегистрируйтесь на сайте (ссылка на регистрацию). Pirat.ca - самый быстрый торрент трекер в рунете!

Как скачивать  ·   Что такое торрент  ·   Рейтинг и ограничения

Показать сообщения:    
Ответить на тему

Текущее время: Сегодня 15:35

Часовой пояс: GMT + 4



Вы не можете начинать темы
Вы не можете отвечать на сообщения
Вы не можете редактировать свои сообщения
Вы не можете удалять свои сообщения
Вы не можете голосовать в опросах
Вы не можете прикреплять файлы к сообщениям
Вы не можете скачивать файлы

▼ Вниз