ML
     
  Уважаемый Гость!
Вы можете поддержать проект и зарегистрироваться у наших партнеров - онлайн-стратегия MyLands. При регистрации в игре Вы получите код, который сможете активировать после регистрации на pirat.ca и получить 1000 дублонов.

Ваш код:
fcd618d94adc1456bccbde5047c9cd0930e4ae4d
 
     

Стивен Джеррард: Моя история / Steven Gerrard: My Story [2005, Футбол, DVDRip]

Ответить на тему
 
Автор
Сообщение

Пост 23-Апр-2012 07:23

[Q] 

Benjamin Craft

Морской Волк

Стивен Джеррард: Моя история / Steven Gerrard: My Story
Вид спорта: Футбол
Участники: Стивен Джеррард / Steven Gerrard
Год: 2005
Язык комментариев: английский / русский
Перевод: Профессиональный (одноголосый)
Продолжительность: 1:05:47
Описание: В мире совсем немного футболистов, которые оставляют настолько яркий след в истории, что ещё задолго до заката карьеры их можно с полным правом назвать живыми легендами. Стивен Джеррард - один из них. Этот потрясающий футболист добился в жизни всего, о чём мечтал с раннего детства.
Фильм рассказывает о всех этапах жизненного пути Стивена Джеррарда, начиная с его рождения до поднятия над головой Кубка Чемпионов. Вы убедитесь в том что звезда мирового уровня - на самом деле обычный парень, отличающийся от остальных только тем, что всю жизнь упорно трудился ради осуществления своей мечты - стать капитаном "Ливерпуля" и выиграть с командой всё, что возможно.
Вы увидете также все самые красивые голы и прекрасные передачи в его исполнении.
Доп. информация:
Производство компании PITCH. Великобритания.
Автор сценария и режисёр: Д. Спуни.
Режиссёр дубляжа: Алексей Богачёв.
Закадровый текст: Арег Оганесян.
Текст читал: Виктор Винитинский.
Дизайн: Степан Хачатрян.
Исполнительный продюсер: Пол Холленд.
Продюсер: Джон Харрисон.
Продюсер русской версии: Михаил Погосов.
Источник/Качество: DVDRip
Формат: AVI
Видео кодек: XviD
Аудио кодек: AC3
Видео: 720x406 (16:9), 25 fps, XviD ~1687 kbps avg
Аудио: 48 kHz, AC3 Dolby Digital, 2 ch (stereo), ~224.00 kbps avg
DVD5: Стивен Джеррард: Моя история / Steven Gerrard: My Story (Футбол) [DVD5, PAL, 576p]
Format : AVI
Format/Info : Audio Video Interleave
File size : 904 MiB
Duration : 1h 5mn
Overall bit rate : 1 922 Kbps
Writing application : Lavf52.94.0
Video
ID : 0
Format : xvid
Codec ID : xvid
Duration : 1h 5mn
Bit rate : 1 687 Kbps
Width : 720 pixels
Height : 406 pixels
Display aspect ratio : 16:9
Frame rate : 25.000 fps
Bits/(Pixel*Frame) : 0.231
Stream size : 794 MiB (88%)
Audio
ID : 1
Format : AC-3
Format/Info : Audio Coding 3
Mode extension : CM (complete main)
Codec ID : 2000
Duration : 1h 5mn
Bit rate mode : Constant
Bit rate : 224 Kbps
Channel(s) : 2 channels
Channel positions : Front: L R
Sampling rate : 48.0 KHz
Bit depth : 16 bits
Compression mode : Lossy
Stream size : 105 MiB (12%)
Alignment : Aligned on interleaves
Interleave, duration : 32 ms (0.80 video frame)





Download / Скачать

Хотите скачать бесплатно? Зарегистрируйтесь на сайте (ссылка на регистрацию). Pirat.ca - самый быстрый торрент трекер в рунете!

Как скачивать  ·   Что такое торрент  ·   Рейтинг и ограничения

Показать сообщения:    
Ответить на тему

Текущее время: Сегодня 12:52

Часовой пояс: GMT + 4



Вы не можете начинать темы
Вы не можете отвечать на сообщения
Вы не можете редактировать свои сообщения
Вы не можете удалять свои сообщения
Вы не можете голосовать в опросах
Вы не можете прикреплять файлы к сообщениям
Вы не можете скачивать файлы

▼ Вниз