ML
     
  Уважаемый Гость!
Вы можете поддержать проект и зарегистрироваться у наших партнеров - онлайн-стратегия MyLands. При регистрации в игре Вы получите код, который сможете активировать после регистрации на pirat.ca и получить 1000 дублонов.

Ваш код:
ee1288b6f7c09d9d2cb2a0f972aba30460ce9333
 
     

EURO 2012 / Группа A / 3- й тур / Россия - Греция / Первый канал [2012 г., Футбол, SATRip]

Ответить на тему
 
Автор
Сообщение

Пост 17-Июн-2012 14:56

[Q] 

Mitay

EURO 2012 / Группа A / 3- й тур / Россия - Греция / Первый канал Год выпуска: 2012
Вид спорта: Футбол
Участники: Сборная России и Греции
Продолжительность: 01:49:00
Комментарий: Профессиональный (одноголосый, закадровый)
Язык комментариев: русский
Комментатор: Виктор Гусев
Описание: Чемпионат Европы по футболу 2012. Группа А от 16.06.2012
Источник/Качество: SATRip
Формат: AVI
Видео кодек: H.264
Аудио кодек: MP3
Видео: 704x576 (1.22:1), 29.970 fps, Intel ITU H.264 ~1679 kbps avg, 0.14 bit/pixel
Аудио: 44.100 kHz, MPEG Layer 3, 2 ch, ~128.00 kbps avg
Формат : AVI
Формат/Информация : Audio Video Interleave
Профиль формата : OpenDML
Размер файла : 1,38 Гбайт
Продолжительность : 1 ч. 48 м.
Общий поток : 1822 Кбит/сек
Программа кодирования : Lavf52.39.0
Видео
Идентификатор : 0
Формат : AVC
Формат/Информация : Advanced Video Codec
Профиль формата : [email protected]
Параметр CABAC формата : Да
Параметр ReFrames формата : 3 кадра
Идентификатор кодека : H264
Продолжительность : 1 ч. 48 м.
Битрейт : 1679 Кбит/сек
Номинальный битрейт : 2000 Кбит/сек
Ширина : 704 пикселя
Высота : 576 пикселей
Соотношение сторон : 16:9
Частота кадров : 29,970 кадров/сек
Стандарт вещания : PAL
Цветовое пространство : YUV
Субдискретизация насыщенности : 4:2:0
Битовая глубина : 8 бит
Тип развёртки : Прогрессивная
Бит/(Пиксели*Кадры) : 0.138
Размер потока : 1,28 Гбайт (92%)
Библиотека кодирования : x264 core 77
Настройки программы : cabac=1 / ref=3 / deblock=1:0:0 / analyse=0x3:0x113 / me=hex / subme=7 / psy=1 / psy_rd=1.0:0.0 / mixed_ref=1 / me_range=16 / chroma_me=1 / trellis=1 / 8x8dct=1 / cqm=0 / deadzone=21,11 / chroma_qp_offset=-2 / threads=2 / nr=0 / decimate=1 / mbaff=0 / constrained_intra=0 / bframes=3 / b_pyramid=0 / b_adapt=1 / b_bias=0 / direct=1 / wpredb=32 / keyint=250 / keyint_min=25 / scenecut=40 / rc_lookahead=40 / rc=abr / mbtree=1 / bitrate=2000 / ratetol=1.0 / qcomp=0.60 / qpmin=10 / qpmax=51 / qpstep=4 / ip_ratio=1.41 / aq=1:1.00
Аудио
Идентификатор : 1
Формат : MPEG Audio
Версия формата : Version 1
Профиль формата : Layer 3
Режим : Joint stereo
Расширение режима : MS Stereo
Идентификатор кодека : 55
Идентификатор кодека/Подсказка : MP3
Продолжительность : 1 ч. 48 м.
Вид битрейта : Постоянный
Битрейт : 128 Кбит/сек
Каналы : 2 канала
Частота : 44,1 КГц
Метод сжатия : С потерями
Размер потока : 99,6 Мбайт (7%)
Выравнивание : Соединение по промежуткам
Продолжительность промежутка : 26 мс. (0,78 видеокадр)
Download / Скачать

Хотите скачать бесплатно? Зарегистрируйтесь на сайте (ссылка на регистрацию). Pirat.ca - самый быстрый торрент трекер в рунете!

Как скачивать  ·   Что такое торрент  ·   Рейтинг и ограничения

Дядя Витя

53910

Пост 19-Июн-2012 17:35 (спустя 2 дня 2 часа)

[Q] 

может, в раздел порно перенести ?

_________________
?
[Профиль]  [ЛС] 

Mitay ®

388

Пост 19-Июн-2012 21:13 (спустя 3 часа)

[Q] 

VIT74, Я об этом уже подумывал :)

_________________
[Профиль]  [ЛС] 

captanantiel

1711

Пост 20-Июн-2012 01:42 (спустя 4 часа)

[Q] 

VIT74, Не, закроют ac Ввиду особой степени извращений cm

_________________
Если тебя укусила собака не отвечай ей тем же. 
[Профиль]  [ЛС] 

Дядя Витя

53910

Пост 20-Июн-2012 21:41 (спустя 19 часов)

[Q] 

Mitay, captanantiel, тада пусть тут лежит ... на память )

_________________
?
[Профиль]  [ЛС] 

ribi

9976

Пост 21-Июн-2012 17:06 (спустя 19 часов)

[Q] 

Вот так мы болеем за Россию(

_________________
[Профиль]  [ЛС] 

Mitay ®

388

Пост 21-Июн-2012 23:18 (спустя 6 часов)

[Q] 

Так Мы все за нее болели, только это был не футбол, и даже не его подобие ... Увы и Эхх :(

_________________
[Профиль]  [ЛС] 
Показать сообщения:    
Ответить на тему

Текущее время: Сегодня 18:19

Часовой пояс: GMT + 4



Вы не можете начинать темы
Вы не можете отвечать на сообщения
Вы не можете редактировать свои сообщения
Вы не можете удалять свои сообщения
Вы не можете голосовать в опросах
Вы не можете прикреплять файлы к сообщениям
Вы не можете скачивать файлы

▼ Вниз