ML
     
  Уважаемый Гость!
Вы можете поддержать проект и зарегистрироваться у наших партнеров - онлайн-стратегия MyLands. При регистрации в игре Вы получите код, который сможете активировать после регистрации на pirat.ca и получить 1000 дублонов.

Ваш код:
e6008d9811a0b6a1393c3dc51ecd7bc35637bc21
 
     

Формула 1. Сезон 2013. Этапы c 01 по 10 из 19. Гонки. Спорт1 [2013 г., Автоспорт, HDTVRip]

Ответить на тему
 
Автор
Сообщение

Пост 26-Мар-2013 15:36

[Q] 

Mitay

-Формула 1. Сезон 2013. Этапы c 01 по 10 из 19. Гонки -- Год выпуска: 2013 г.
Вид спорта: Автоспорт
Участники: Себастьян Феттель, Марк Уэббер, Дженсон Баттон, Фернандо Алонсо, Фелипе Масса
Продолжительность: 02:30:00
Комментарий: Профессиональный (двухголосый, закадровый)
Комментатор: Алексей Попов и Наталья Фабричнова
Язык комментариев: русский
Автор рипа / записи: Mitay-Описание: 64-й сезон Формулы-1-
Red Bull, McLaren, Ferrari, Mercedes, Lotus, Force India, Sauber, Toro Rosso, Williams, Caterham, HRT, Marussia
Качество видео: HDTVRip
Контейнер: AVI
Видео кодек: H.264
Аудио кодек: MP3
Видео: 1280x720 (1.78:1), 29.970 fps, Intel ITU H.264 ~1664 kbps avg, 0.06 bit/pixel
Аудио: 44.100 kHz, MPEG Layer 3, 2 ch, ~128.00 kbps avg
Формат : AVI
Формат/Информация : Audio Video Interleave
Профиль формата : OpenDML
Размер файла : 1,54 Гбайт
Продолжительность : 2 ч. 2 м.
Общий поток : 1807 Кбит/сек
Программа кодирования : Lavf52.39.0
Видео
Идентификатор : 0
Формат : AVC
Формат/Информация : Advanced Video Codec
Профиль формата : [email protected]
Параметр CABAC формата : Да
Параметр ReFrames формата : 4 кадра
Идентификатор кодека : H264
Продолжительность : 2 ч. 2 м.
Битрейт : 1664 Кбит/сек
Номинальный битрейт : 2000 Кбит/сек
Ширина : 1280 пикселей
Высота : 720 пикселей
Соотношение сторон : 16:9
Частота кадров : 29,970 кадров/сек
Цветовое пространство : YUV
Субдискретизация насыщенности : 4:2:0
Битовая глубина : 8 бит
Тип развёртки : Прогрессивная
Бит/(Пиксели*Кадры) : 0.060
Размер потока : 1,42 Гбайт (92%)
Библиотека кодирования : x264 core 77
Настройки программы : cabac=1 / ref=4 / deblock=1:0:0 / analyse=0x3:0x113 / me=umh / subme=8 / psy=1 / psy_rd=1.0:0.0 / mixed_ref=1 / me_range=16 / chroma_me=1 / trellis=1 / 8x8dct=1 / cqm=0 / deadzone=21,11 / chroma_qp_offset=-2 / threads=2 / nr=0 / decimate=1 / mbaff=0 / constrained_intra=0 / bframes=3 / b_pyramid=0 / b_adapt=2 / b_bias=0 / direct=3 / wpredb=32 / keyint=250 / keyint_min=25 / scenecut=40 / rc_lookahead=40 / rc=abr / mbtree=1 / bitrate=2000 / ratetol=1.0 / qcomp=0.60 / qpmin=10 / qpmax=51 / qpstep=4 / ip_ratio=1.41 / aq=1:1.00
Аудио
Идентификатор : 1
Формат : MPEG Audio
Версия формата : Version 1
Профиль формата : Layer 3
Режим : Joint stereo
Расширение режима : MS Stereo
Идентификатор кодека : 55
Идентификатор кодека/Подсказка : MP3
Продолжительность : 2 ч. 2 м.
Вид битрейта : Постоянный
Битрейт : 128 Кбит/сек
Каналы : 2 канала
Частота : 44,1 КГц
Метод сжатия : С потерями
Размер потока : 112 Мбайт (7%)
Выравнивание : Соединение по промежуткам
Продолжительность промежутка : 26 мс. (0,78 видеокадр)
Библиотека кодирования : LAME3.98.2ЄЄЄЄЄЄЄЄЄЄ
Download / Скачать

Хотите скачать бесплатно? Зарегистрируйтесь на сайте (ссылка на регистрацию). Pirat.ca - самый быстрый торрент трекер в рунете!

Как скачивать  ·   Что такое торрент  ·   Рейтинг и ограничения



Последний раз редактировалось: Mitay (2013-08-01 06:31), всего редактировалось 8 раз(а)

Mitay ®

388

Пост 15-Апр-2013 10:17 (спустя 19 дней)

[Q] 

Добавлена гонка Монако !!!

_________________
[Профиль]  [ЛС] 

roma77741

Штурман

Пост 04-Июн-2013 20:03 (спустя 1 месяц 19 дней)

[Q] 

дайте скачать
[Профиль]  [ЛС] 

MuSalini

Лоцман

Пост 22-Июн-2013 14:37 (спустя 17 дней)

[Q] 

Дайте скорость пжлст!!))
[Профиль]  [ЛС] 

Mitay ®

388

Пост 22-Июн-2013 16:07 (спустя 1 час 29 минут)

[Q] 

24 часа тут, скорость не режу ...

_________________
[Профиль]  [ЛС] 

Propeller Dimas

Пост 12-Окт-2013 04:35 (спустя 3 месяца 19 дней)

[Q] 

Mitay, Продолжение будет или нет?
[Профиль]  [ЛС] 

xxxLOGICxxx

Корсар

Пост 25-Ноя-2013 22:23 (спустя 1 месяц 13 дней)

[Q] 

Нашел тут раздачу, а сезон окончен=) Следующий буду качать тут=)
[Профиль]  [ЛС] 
Показать сообщения:    
Ответить на тему

Текущее время: Сегодня 01:59

Часовой пояс: GMT + 4



Вы не можете начинать темы
Вы не можете отвечать на сообщения
Вы не можете редактировать свои сообщения
Вы не можете удалять свои сообщения
Вы не можете голосовать в опросах
Вы не можете прикреплять файлы к сообщениям
Вы не можете скачивать файлы

▼ Вниз