ML
     
  Уважаемый Гость!
Вы можете поддержать проект и зарегистрироваться у наших партнеров - онлайн-стратегия MyLands. При регистрации в игре Вы получите код, который сможете активировать после регистрации на pirat.ca и получить 1000 дублонов.

Ваш код:
156f85568ae63e45e07ac461c96a83ba1a876b0a
 
     

Мастер-шоу на Матче звезд КХЛ 2012 [2012 г., Хоккей, SATRip]

Ответить на тему
 
Автор
Сообщение

Пост 22-Янв-2012 22:24

[Q] 

ribi

Мастер-шоу на Матче звезд КХЛ 2012 Год выпуска: 2012
Вид спорта: Хоккей
Участники: Команда Озолиньша - Команда Фёдорова
Продолжительность: 1:12:23
Комментарий: Профессиональный (двухголосый, закадровый)
Язык комментариев: русский
Автор рипа/записи: Frrykt
Описание: Континентальная хоккейная лига определила конкурсы для проведения Мастер-шоу на Матче Звезд 2012 в Риге. Это традиционные «Круг на скорость», «Бросок» шайбы на дальность, «Эстафета Змейка», «Броски на точность» (по мишеням), «Сила броска», «Эффектный буллит», а также не проводившийся с сезона 2008/2009 «Конкурс вратарей» (бросок вратарем шайбы на точность от угла лицевой линии своей зоны по пустым воротам чужой зоны») и новый конкурс – «Конкурс капитанов», условия которого станут сюрпризом для болельщиков и будут известны непосредственно перед «Мастер шоу».
Формат : MPEG-4
Профиль формата : Base Media
Идентификатор кодека : isom
Размер файла : 2,09 Гбайт
Продолжительность : 1 ч. 12 м.
Режим общего битрейта : Переменный
Общий поток : 4137 Кбит/сек
Дата кодирования : UTC 2012-01-21 15:09:44
Дата пометки : UTC 2012-01-21 15:09:44
Программа кодирования : vlc 1.0.3 stream output
Видео
Идентификатор : 2
Формат : MPEG Video
Версия формата : Version 2
Профиль формата : [email protected]
Параметр BVOP формата : Да
Параметр матрицы формата : Выборочная
Параметр GOP формата : M=3, N=24
Идентификатор кодека : 60
Продолжительность : 1 ч. 12 м.
Вид битрейта : Переменный
Битрейт : 3940 Кбит/сек
Максимальный битрейт : 15,0 Мбит/сек
Ширина : 704 пикселя
Высота : 576 пикселей
Соотношение сторон : 1,222
Соотношение сторон в оригинале : 16:9
Режим частоты кадров : Переменный
Частота кадров : 25,000 кадров/сек
Минимальная частота кадров : 23,833 кадра/сек
Максимальная частота кадров : 26,342 кадров/сек
Стандарт вещания : PAL
Цветовое пространство : YUV
Субдискретизация насыщенности : 4:2:0
Битовая глубина : 8 бит
Тип развёртки : Чересстрочная
Порядок развёртки : Верхнее поле первое
Метод сжатия : С потерями
Бит/(Пиксели*Кадры) : 0.389
Размер потока : 1,99 Гбайт (95%)
Язык : English
Дата кодирования : UTC 2012-01-21 15:09:47
Дата пометки : UTC 2012-01-21 15:09:47
Аудио
Идентификатор : 1
Формат : MPEG Audio
Версия формата : Version 1
Профиль формата : Layer 2
Идентификатор кодека : 6B
Продолжительность : 1 ч. 12 м.
Вид битрейта : Постоянный
Битрейт : 192 Кбит/сек
Максимальный битрейт : 313 Мбит/сек
Каналы : 2 канала
Частота : 48,0 КГц
Метод сжатия : С потерями
Размер потока : 99,4 Мбайт (5%)
Язык : English
Дата кодирования : UTC 2012-01-21 15:09:44
Дата пометки : UTC 2012-01-21 15:09:44
Источник/Качество: SATRip
Формат: MPEG
Видео: MPEG-4, 704x576, 25 fps, 3000 kbps
Аудио: MPEG Audio Layer 3 48000Hz stereo 192 kbps
Download / Скачать

Хотите скачать бесплатно? Зарегистрируйтесь на сайте (ссылка на регистрацию). Pirat.ca - самый быстрый торрент трекер в рунете!

Как скачивать  ·   Что такое торрент  ·   Рейтинг и ограничения



Последний раз редактировалось: ribi (2012-08-26 21:33), всего редактировалось 1 раз

Novvy

Корсар

370

Пост 23-Янв-2012 00:00 (спустя 1 час 35 минут)

[Q] 

ribi, стоит смотреть? было что-нибудь толковое на шоу?

_________________
Пыш-пыш
[Профиль]  [ЛС] 
Показать сообщения:    
Ответить на тему

Текущее время: Сегодня 21:56

Часовой пояс: GMT + 4



Вы не можете начинать темы
Вы не можете отвечать на сообщения
Вы не можете редактировать свои сообщения
Вы не можете удалять свои сообщения
Вы не можете голосовать в опросах
Вы не можете прикреплять файлы к сообщениям
Вы не можете скачивать файлы

▼ Вниз