ML
     
  Уважаемый Гость!
Вы можете поддержать проект и зарегистрироваться у наших партнеров - онлайн-стратегия MyLands. При регистрации в игре Вы получите код, который сможете активировать после регистрации на pirat.ca и получить 1000 дублонов.

Ваш код:
bb0cb47ee786a33f751af5a500dd264c9487bfac
 
     

Качая железо / Pumping Iron [1977 г., Бодибилдинг, DVDRip-AVC]

Ответить на тему
 
Автор
Сообщение

Пост 01-Дек-2011 16:10

[Q] 

jekich

Корсар

Качая железо / Pumping Iron- Год выпуска: 1977
Вид спорта: Бодибилдинг
Участники: Арнольд Шварценеггер (Arnold Schwarzenegger), Лу Ферриньо (Louis Ferrigno), Мэтти и Виктория Ферриньо (Matty & Victoria Ferrigno), Майк Кац (Mike Katz), Франко Колумбу (Franco Columbu), Эд Корни (Ed Corney) Кен Уоллер (Ken Waller), Серж Нубре (Serge Nubret), Робин Робинсон (Robin Robinson)
Продолжительность: 01:25:34
Комментарий: Профессиональный (одноголосый) - Рябов
Описание: В 1977 году на экраны вышел потрясающий фильм, полностью изменивший представление о мире культуризма. Картина стала суперхитом и международной сенсацией: бодибилдинг в одночасье вошел в моду. Но, что самое главное, эта лента стала началом карьеры одного из самых знаменитых актёров на Земле и нынешнего губернатора штата Калифорния.
«Качая Железо» явил миру двадцативосьмилетнего Арнольда Шварценеггера — пятикратного обладателя титула «Мистер Олимпия», австрийского культуриста, которого книга рекордов Гинесса назовёт «самым идеально сложенным мужчиной за всю историю мира». В этой картине будущая суперзвезда Голливуда будет бороться за свой 6-ой титул «Мистер Олимпия»!-КиноПоиск | IMDb-Источник/Качество: DVDRip-AVC
Формат: MKV
Видео кодек: H.26x
Видео: 688x528 @ 734x528, 1087 Kbps, 0.120 bit/pix
Аудио: AC3 2.0, 48 KHz, битрейт аудио: 128 кб/с - Рябов
General
Unique ID : 178888868695120492220970671655415867617 (0x8694BE2E48E3E7C0AFEAC634540A68E1)
Complete name : C:\Users\евгений\Desktop\downloads\Kachaya jelezo(1977).mkv
Format : Matroska
Format version : Version 2
File size : 744 MiB
Duration : 1h 25mn
Overall bit rate : 1 216 Kbps
Encoded date : UTC 2011-09-13 23:03:28
Writing application : mkvmerge v4.9.1 ('Ich will') сборка от Aug 10 2011 09:31:20
Writing library : libebml v1.2.1 + libmatroska v1.2.0
Video
ID : 1
Format : AVC
Format/Info : Advanced Video Codec
Format profile : [email protected]
Format settings, CABAC : Yes
Format settings, ReFrames : 8 frames
Codec ID : V_MPEG4/ISO/AVC
Duration : 1h 25mn
Bit rate : 1 087 Kbps
Width : 688 pixels
Height : 528 pixels
Display aspect ratio : 1.390
Frame rate : 25.000 fps
Color space : YUV
Chroma subsampling : 4:2:0
Bit depth : 8 bits
Scan type : Progressive
Bits/(Pixel*Frame) : 0.120
Stream size : 651 MiB (87%)
Writing library : x264 core 116 r2074 2641b9e
Encoding settings : cabac=1 / ref=8 / deblock=1:-3:-2 / analyse=0x3:0x133 / me=umh / subme=9 / psy=1 / psy_rd=1.00:0.20 / mixed_ref=1 / me_range=32 / chroma_me=1 / trellis=2 / 8x8dct=1 / cqm=0 / deadzone=21,11 / fast_pskip=1 / chroma_qp_offset=-3 / threads=6 / sliced_threads=0 / nr=0 / decimate=1 / interlaced=0 / bluray_compat=0 / constrained_intra=0 / bframes=4 / b_pyramid=2 / b_adapt=2 / b_bias=0 / direct=3 / weightb=1 / open_gop=0 / weightp=2 / keyint=250 / keyint_min=25 / scenecut=40 / intra_refresh=0 / rc_lookahead=60 / rc=2pass / mbtree=1 / bitrate=1087 / ratetol=1.0 / qcomp=0.60 / qpmin=0 / qpmax=69 / qpstep=4 / cplxblur=20.0 / qblur=0.5 / ip_ratio=1.40 / aq=1:1.00
Audio
ID : 2
Format : AC-3
Format/Info : Audio Coding 3
Mode extension : CM (complete main)
Codec ID : A_AC3
Duration : 1h 25mn
Bit rate mode : Constant
Bit rate : 128 Kbps
Channel(s) : 2 channels
Channel positions : Front: L R
Sampling rate : 48.0 KHz
Bit depth : 16 bits
Compression mode : Lossy
Stream size : 78.3 MiB (11%)
Download / Скачать

Хотите скачать бесплатно? Зарегистрируйтесь на сайте (ссылка на регистрацию). Pirat.ca - самый быстрый торрент трекер в рунете!

Как скачивать  ·   Что такое торрент  ·   Рейтинг и ограничения

YAZuk

Штурман

Пост 16-Сен-2012 17:44 (спустя 9 месяцев 15 дней)

[Q] 

[Профиль]  [ЛС] 

ROMARIO43

Штурман

Пост 07-Окт-2012 15:37 (спустя 20 дней)

[Q] 

[Профиль]  [ЛС] 

Михаил001100

Лоцман

Пост 19-Окт-2012 19:38 (спустя 12 дней)

[Q] 

[thumb][/thumb]
[Профиль]  [ЛС] 

mr.Figoro1

Морской Волк

Пост 22-Янв-2014 00:44 (спустя 1 год 3 месяца)

[Q] 

вот это я понимаю - остросюжетный фильм Всем качать!!!
[Профиль]  [ЛС] 

Valdamir

Корсар

Пост 22-Янв-2014 02:20 (спустя 1 час 35 минут)

[Q] 

Шварц как всегда на высоте!!!!
[Профиль]  [ЛС] 

DenisMoskvin

Штурман

Пост 11-Май-2015 19:17 (спустя 1 год 3 месяца)

[Q] 

Очень хороший фильм!
[Профиль]  [ЛС] 

croxus

Корсар

6

Пост 15-Мар-2016 20:44 (спустя 10 месяцев 4 дня)

[Q] 

Спасибо за Фильм!!!
[Профиль]  [ЛС] 
Показать сообщения:    
Ответить на тему

Текущее время: Сегодня 02:19

Часовой пояс: GMT + 4



Вы не можете начинать темы
Вы не можете отвечать на сообщения
Вы не можете редактировать свои сообщения
Вы не можете удалять свои сообщения
Вы не можете голосовать в опросах
Вы не можете прикреплять файлы к сообщениям
Вы не можете скачивать файлы

▼ Вниз