ML
     
  Уважаемый Гость!
Вы можете поддержать проект и зарегистрироваться у наших партнеров - онлайн-стратегия MyLands. При регистрации в игре Вы получите код, который сможете активировать после регистрации на pirat.ca и получить 1000 дублонов.

Ваш код:
a15ef9055588aa69d0130f3d67fbbe805f490cfb
 
     

В. Кличко - А. Поветкин, бой за титул чемпиона мира / WBA/IBF/WBO/IBO 05.10.13 [2013 г., Бокс, HDTVRip]

Ответить на тему
 
Автор
Сообщение

Пост 06-Окт-2013 11:05

[Q] 

aleksejj

Корсар

-В. Кличко - А. Поветкин, бой за титул чемпиона мира / WBA/IBF/WBO/IBO -- Производство: Россия
Жанр: Бокс
Год выпуска: 2013 г.
Продолжительность: 01:14:30
Перевод: Профессиональный (одноголосый, закадровый)
Автор(ы) перевода: Владимир Гендлин (старший)
Режиссер: Телекомпания: -В ролях: В. Кличко - А. Поветкин-Описание: Первый канал представляет бой за звание чемпиона мира по боксу среди профессионалов между Владимиром Кличко и Александром Поветкиным, который пройдет в московском спорткомплексе "Олимпийский". На кон поставлены титулы Кличко (суперчемпион WBA, чемпион IBF и WBO) и Поветкина (пояс регулярного чемпиона WBA). Владимир уже назвал Александра самым сильным своим соперником в карьере, однако, планирует завершить бой нокаутом. Кличко - 60 побед на профессиональном ринге (51 - досрочно) и 3 поражения. Поветкин - 26 побед на проф.ринге (18 - нокаутом) и ни одного поражения.-Качество видео: HDTVRip
Видео кодек: H.264
Аудио кодек: MP3
Видео: 1920x1080i at 25.000 fps, MPEG-4 AVC, [email protected], ~13.1 Mbps
Аудио: 48 kHz, MP2, 2/0 (L,R) ch, ~192.00 kbps avg
Cубтитры: отсутствуют
Общее
Идентификатор : 1 (0x1)
Полное имя : C:\Users\aleksejj\Videos\WBA.IBF.WBO.IBO.[pirat.ca].ts
Формат : MPEG-TS
Размер файла : 7,28 Гбайт
Продолжительность : 1 ч. 14 м.
Режим общего битрейта : Переменный
Общий поток : 14,0 Мбит/сек
Видео
Идентификатор : 305 (0x131)
Идентификатор меню : 1 (0x1)
Формат : AVC
Формат/Информация : Advanced Video Codec
Профиль формата : [email protected]
Параметр CABAC формата : Да
Параметр ReFrames формата : 3 кадра
Идентификатор кодека : 27
Продолжительность : 1 ч. 14 м.
Битрейт : 13,1 Мбит/сек
Ширина : 1920 пикселей
Высота : 1080 пикселей
Соотношение сторон : 16:9
Частота кадров : 25,000 кадров/сек
Стандарт вещания : Component
Цветовое пространство : YUV
Субдискретизация насыщенности : 4:2:0
Битовая глубина : 8 бит
Тип развёртки : Чересстрочная
Порядок развёртки : Верхнее поле первое
Бит/(Пиксели*Кадры) : 0.253
Размер потока : 6,82 Гбайт (94%)
Основные цвета : BT.709
Характеристики трансфера : BT.709
Коэффициенты матрицы : BT.709
Аудио
Идентификатор : 405 (0x195)
Идентификатор меню : 1 (0x1)
Формат : MPEG Audio
Версия формата : Version 1
Профиль формата : Layer 2
Идентификатор кодека : 3
Продолжительность : 1 ч. 14 м.
Вид битрейта : Постоянный
Битрейт : 192 Кбит/сек
Каналы : 2 канала
Частота : 48,0 КГц
Метод сжатия : С потерями
Размер потока : 102 Мбайт (1%)
Язык : Russian
Download / Скачать

Хотите скачать бесплатно? Зарегистрируйтесь на сайте (ссылка на регистрацию). Pirat.ca - самый быстрый торрент трекер в рунете!

Как скачивать  ·   Что такое торрент  ·   Рейтинг и ограничения

Seva78

1518

Пост 06-Окт-2013 11:24 (спустя 19 минут)

[Q] 

aleksejj, Думаю всё же вы ошиблись разделом,вам всё же сюда Бокс / Бои без правил / Драки (форум),модераторы разберутся,хотя бой всё же смахивал в меньшей мере на бокс,по крайней мере с одной боксирующей стороны точно,но победителей не судят.

_________________
[Профиль]  [ЛС] 

Pronto

Корсар

Пост 06-Окт-2013 13:58 (спустя 2 часа 34 минуты)

[Q] 

да.. разочарование и только..

_________________
[Профиль]  [ЛС] 

papa0423

Морской Волк

691

Пост 06-Окт-2013 14:48 (спустя 49 минут)

[Q] 

а по меньше объемом можно,,,,
[Профиль]  [ЛС] 

Пост 06-Окт-2013 22:08 (спустя 7 часов)

Топик был перенесен из форума Документальные фильмы и передачи (Трюм) в форум Спортивные фильмы и передачи (Трюм)
anton966
 

Пост 06-Окт-2013 22:14 (спустя 7 часов)

Топик был перенесен из форума Спортивные фильмы и передачи (Трюм) в форум Бокс / Бои без правил / Драки
ribi
 

petrovich58

Корсар

Пост 07-Окт-2013 03:46 (спустя 12 часов)

[Q] 

432066да.. разочарование и только..
Есть такое дело.Но наверняка будет матч-реванш, вопрос времени. Там уж Саша не будет переть не глядя как торпеда. bu Вокруг боксёров всегда крутится всякая братия типа промоутеров, имиджмейкеров,журналюг-предсказателей...Не говоря уж о массажистах,врачах,тренерах,спарринг-партнёрах...И все хотят на этом заработать. Так что мало им того что они уже поимели на этом шоу,захотят ещё колобашек-бабулечек сорвать на сенсации когда стареющий чемпион уступит свой титул.И скорее всего уже всё схвачено - то что было всего лишь набивает цену. am
[Профиль]  [ЛС] 

edisonn

Лоцман

Пост 13-Окт-2013 15:23 (спустя 6 дней)

[Q] 

Автор , пояс Поветкина в этом бою не ставился на кон. Это был поединок Чемпиона и обязательного Претендета
[Профиль]  [ЛС] 

petrovich58

Корсар

Пост 31-Дек-2013 04:03 (спустя 2 месяца 17 дней)

[Q] 

anime84 Всех пиратов с наступающим Новым годом! az
[Профиль]  [ЛС] 

vovoccka2233

Лоцман

Пост 16-Янв-2014 07:19 (спустя 16 дней)

[Q] 

мне этот бой напомнил бой Льюиса с Тайсоном . уж простите за ассоциацию боя великих чемпионов и боя советских чебурашек.
[Профиль]  [ЛС] 

Reno-19

421

Пост 25-Окт-2014 17:24 (спустя 9 месяцев 9 дней)

[Q] 

Это круто.... Всем качать!!!
[Профиль]  [ЛС] 

petrovich58

Корсар

Пост 24-Фев-2015 07:34 (спустя 3 месяца 29 дней)

[Q] 

С Днём защитника Отечества всех бойцов! anime84
[Профиль]  [ЛС] 
Показать сообщения:    
Ответить на тему

Текущее время: Сегодня 20:33

Часовой пояс: GMT + 4



Вы не можете начинать темы
Вы не можете отвечать на сообщения
Вы не можете редактировать свои сообщения
Вы не можете удалять свои сообщения
Вы не можете голосовать в опросах
Вы не можете прикреплять файлы к сообщениям
Вы не можете скачивать файлы

▼ Вниз