ML
     
  Уважаемый Гость!
Вы можете поддержать проект и зарегистрироваться у наших партнеров - онлайн-стратегия MyLands. При регистрации в игре Вы получите код, который сможете активировать после регистрации на pirat.ca и получить 1000 дублонов.

Ваш код:
a15ef9055588aa69d0130f3d67fbbe805f490cfb
 
     

М. Тайсон - Э. Холифилд / 1 бой / НТВ [09.11.1996 г., бокс, SATRip]

Ответить на тему
 
Автор
Сообщение

Пост 08-Дек-2015 12:01

[Q] 

ribi

-М. Тайсон - Э. Холифилд / 1 бой-- Год выпуска: 09.11.1996 г.
Вид спорта: бокс
Продолжительность: 0:27:11
Комментарий: Профессиональный (одноголосый, закадровый)
Комментатор: ГЕНДЛИН В.И.
Язык комментариев: русский
Описание: Первый бой двух великих боксеров, состоявшийся в 1996 году. Чемпион по версиям WBA и WBC Майк Тайсон вышел на ринг против бывшего абсолютного чемпиона мира в двух весовых категориях Эвандера Холифилда.
Перед боем журнал The Ring провел опрос 49 самых известных экспертов бокса о результате и 48 предсказали победу Тайсону. Однако этот бой стал возможно лучшим для Холифилда за всю его карьеру и безусловно позволил ему войти в сонм великих чемпионов.
В ноябре 1996 года наконец состоялся долгожданный бой между Майком Тайсоном и Эвандером Холифилдом, подготовка к которому начиналась еще до того, как Майк угодил в тюрьму. Фаворитом в этом бою был Тайсон (ставки на него принимались из расчета 22 к 1), однако Холифилд, считавшийся к тому времени старым и «пробитым» бойцом, сумел удивить всех специалистов и любителей бокса!-Качество видео: SATRip
Контейнер: VOB
Видео кодек: MPEG2
Аудио кодек: AC3
Видео: 720 x 576 (1.333) at 25.000 fps 4 329 Kbps
Аудио: 2 channels, 48.0 KHz 384 Kbps
Video
ID : 224 (0xE0)
Format : MPEG Video
Format version : Version 2
Format profile : [email protected]
Format settings, BVOP : Yes
Format settings, Matrix : Custom
Format settings, GOP : M=3, N=12
Duration : 22mn 5s
Bit rate mode : Variable
Bit rate : 4 329 Kbps
Maximum bit rate : 6 300 Kbps
Width : 720 pixels
Height : 576 pixels
Display aspect ratio : 4:3
Frame rate : 25.000 fps
Standard : PAL
Color space : YUV
Chroma subsampling : 4:2:0
Bit depth : 8 bits
Scan type : Interlaced
Scan order : Top Field First
Compression mode : Lossy
Bits/(Pixel*Frame) : 0.418
Stream size : 684 MiB (90%)
Audio
ID : 189 (0xBD)-128 (0x80)
Format : AC-3
Format/Info : Audio Coding 3
Mode extension : CM (complete main)
Muxing mode : DVD-Video
Duration : 22mn 5s
Bit rate mode : Constant
Bit rate : 384 Kbps
Channel(s) : 2 channels
Channel positions : Front: L R
Sampling rate : 48.0 KHz
Bit depth : 16 bits
Compression mode : Lossy
Delay relative to video : -304ms
Stream size : 60.7 MiB (8%)
Download / Скачать

Хотите скачать бесплатно? Зарегистрируйтесь на сайте (ссылка на регистрацию). Pirat.ca - самый быстрый торрент трекер в рунете!

Как скачивать  ·   Что такое торрент  ·   Рейтинг и ограничения

Показать сообщения:    
Ответить на тему

Текущее время: Сегодня 20:33

Часовой пояс: GMT + 4



Вы не можете начинать темы
Вы не можете отвечать на сообщения
Вы не можете редактировать свои сообщения
Вы не можете удалять свои сообщения
Вы не можете голосовать в опросах
Вы не можете прикреплять файлы к сообщениям
Вы не можете скачивать файлы

▼ Вниз