ML
     
  Уважаемый Гость!
Вы можете поддержать проект и зарегистрироваться у наших партнеров - онлайн-стратегия MyLands. При регистрации в игре Вы получите код, который сможете активировать после регистрации на pirat.ca и получить 1000 дублонов.

Ваш код:
aec9a4a936117fb450ba69e519991a0465404b1d
 
     

М. Тайсон - Э. Холифилд / 2 бой [28.06.1997 г., бокс, VHSRip]

Ответить на тему
 
Автор
Сообщение

Пост 08-Дек-2015 21:47

[Q] 

ribi

-М. Тайсон - Э. Холифилд / 2 бой-- Год выпуска: 28.06.1997 г.
Вид спорта: бокс
Продолжительность: 00:40:00
Комментарий: Профессиональный (одноголосый, закадровый)
Комментатор: Гендлин В.И
Язык комментариев: русский
Описание: Вес: Тайсон 98,90 кг; Холифилд 98,90 кг
В июле 1997 года состоялся 2-й бой между Эвандером Холифилдом и Майком Тайсоном. В конце 3-го раунда во время клинча Тайсон откусил противнику задне-верхнюю часть правой ушной раковины (дарвинов бугорок). Холифилд запрыгал от боли. Рефери Миллс Лейн приостановил бой. Доктор осмотрел чемпиона и сказал, что он может продолжать бой. Рефери оштрафовал Тайсона на два очка. После возобновления боя претендент попытался укусить чемпиона за левое ухо. В перерыве между 3-м и 4-м раундами бой остановили. Началась потасовка. Секьюрити и полиция прекратили беспорядки на ринге. Тайсон был дисквалифицирован. В послематчевом интервью телеканалу Showtime Миллс Лейнс сказал, что остановил бой так как Тайсон дважды нарушил правила: в 1-й раз он его оштрафовал на два очка, во 2-й раз — дисквалифицировал.-Качество видео: VHSRip
Контейнер: AVI
Видео кодек: XviD
Аудио кодек: AC3
Видео: 720 x 536 (1.343) at 25.000 fps 1 800 Kbps
Аудио: 1 channel, 48.0 KHz 192 Kbps
Video
ID : 0
Format : MPEG-4 Visual
Codec ID : XVID
Codec ID/Hint : XviD
Duration : 1h 0mn
Bit rate : 1 800 Kbps
Width : 720 pixels
Height : 536 pixels
Display aspect ratio : 4:3
Frame rate : 25.000 fps
Color space : YUV
Chroma subsampling : 4:2:0
Compression mode : Lossy
Bits/(Pixel*Frame) : 0.187
Stream size : 785 MiB (90%)
Audio
ID : 1
Format : AC-3
Format/Info : Audio Coding 3
Codec ID : 2000
Duration : 1h 0mn
Bit rate mode : Constant
Bit rate : 192 Kbps
Channel(s) : 1 channel
Sampling rate : 48.0 KHz
Compression mode : Lossy
Stream size : 83.7 MiB (10%)
Alignment : Aligned on interleaves
Interleave, duration : 40 ms (1.00 video frame)
Download / Скачать

Хотите скачать бесплатно? Зарегистрируйтесь на сайте (ссылка на регистрацию). Pirat.ca - самый быстрый торрент трекер в рунете!

Как скачивать  ·   Что такое торрент  ·   Рейтинг и ограничения

Показать сообщения:    
Ответить на тему

Текущее время: Сегодня 02:21

Часовой пояс: GMT + 4



Вы не можете начинать темы
Вы не можете отвечать на сообщения
Вы не можете редактировать свои сообщения
Вы не можете удалять свои сообщения
Вы не можете голосовать в опросах
Вы не можете прикреплять файлы к сообщениям
Вы не можете скачивать файлы

▼ Вниз