ML
     
  Уважаемый Гость!
Вы можете поддержать проект и зарегистрироваться у наших партнеров - онлайн-стратегия MyLands. При регистрации в игре Вы получите код, который сможете активировать после регистрации на pirat.ca и получить 1000 дублонов.

Ваш код:
aec9a4a936117fb450ba69e519991a0465404b1d
 
     

THE NBA DREAM TEAM ( Документальный фильм о Дрим Тим 1992 и её участниках ) [Баскетбол, TVRip]

Ответить на тему
 
Автор
Сообщение

Пост 08-Дек-2015 12:33

[Q] 

ribi

-THE NBA DREAM TEAM ( Документальный фильм о Дрим Тим 1992 и её участниках ) -- Год выпуска: ?
Вид спорта: Баскетбол
Продолжительность: 01:00:00
Комментарий: Профессиональный (одноголосый, закадровый)
Язык комментариев: русский
Описание: Мужская сборная США по баскетболу на Олимпийских играх 1992 года в Барселоне, по прозвищу «Дрим Тим» (англ. Dream Team — «Команда-мечта» или «Команда мечты»), так журналисты назвали сборную США по баскетболу, составленную из звезд Национальной баскетбольной лиги для участия в Олимпийских играх. По мнению многих, является наилучшей командой, когда-либо существовавшей в любом виде спорта, в среднем каждый соперник был обыгран с разницей в 44 очка. В финале «Дрим Тим» победила сборную Хорватии со счетом 117:85. Тренировал команду Чак Дэйли, его ассистентами были Ленни Уилкенс, Пи Джей Карлесимо и Майк Кржижевски.-Качество видео: TVRip
Контейнер: AVI
Видео кодек: XviD
Аудио кодек: MP3
Видео: 688 x 560 (1.340) at 25.000 fps 1 779 Kbps
Аудио: 2 channels, 48.0 KHz 79.8 Kbps
Video
ID : 0
Format : MPEG-4 Visual
Format settings, BVOP : 1
Format settings, QPel : No
Format settings, GMC : No warppoints
Format settings, Matrix : Default (H.263)
Muxing mode : Packed bitstream
Codec ID : DX50
Codec ID/Hint : DivX 5
Duration : 52mn 50s
Bit rate : 1 779 Kbps
Width : 688 pixels
Height : 560 pixels
Display aspect ratio : 4:3
Frame rate : 25.000 fps
Color space : YUV
Chroma subsampling : 4:2:0
Bit depth : 8 bits
Scan type : Progressive
Compression mode : Lossy
Bits/(Pixel*Frame) : 0.185
Stream size : 672 MiB (95%)
Writing library : DivX 6.8.5 (UTC 2009-08-20)
Audio
ID : 1
Format : MPEG Audio
Format version : Version 1
Format profile : Layer 3
Mode : Joint stereo
Mode extension : MS Stereo
Codec ID : 55
Codec ID/Hint : MP3
Duration : 52mn 50s
Bit rate mode : Variable
Bit rate : 79.8 Kbps
Minimum bit rate : 32.0 Kbps
Channel(s) : 2 channels
Sampling rate : 48.0 KHz
Compression mode : Lossy
Stream size : 30.2 MiB (4%)
Alignment : Aligned on interleaves
Interleave, duration : 24 ms (0.60 video frame)
Interleave, preload duration : 548 ms
Writing library : LAME3.97b
Encoding settings : -m j -V 5 -q 3 -lowpass 16 --vbr-new -b 32
Download / Скачать

Хотите скачать бесплатно? Зарегистрируйтесь на сайте (ссылка на регистрацию). Pirat.ca - самый быстрый торрент трекер в рунете!

Как скачивать  ·   Что такое торрент  ·   Рейтинг и ограничения

Показать сообщения:    
Ответить на тему

Текущее время: Сегодня 02:20

Часовой пояс: GMT + 4



Вы не можете начинать темы
Вы не можете отвечать на сообщения
Вы не можете редактировать свои сообщения
Вы не можете удалять свои сообщения
Вы не можете голосовать в опросах
Вы не можете прикреплять файлы к сообщениям
Вы не можете скачивать файлы

▼ Вниз