Уважаемый Гость!
Вы можете поддержать проект и зарегистрироваться у наших партнеров - онлайн-стратегия MyLands. При регистрации в игре Вы получите код, который сможете активировать после регистрации на pirat.ca и получить 1000 дублонов.

Ваш код:
42dfaac977a7ef29e5167536f5b22936dba18477
 
     

Луна 2112 / Moon (Дункан Джонс / Duncan Jones) [2009 г., Фантастика, триллер, драма, детектив, AC3, DTS] AVO (Гаврилов)

Ответить на тему
 
Автор
Сообщение

Пост 13-Авг-2012 17:34

[Q] 

Kampfer161

Корсар

-Луна 2112 / Moon-- Производство: Великобритания
Год выпуска: 2009 г.
Жанр: Фантастика, триллер, драма, детектив
Продолжительность: 01:37:09
Перевод: Авторский (одноголосый) Гаврилов
Режиссер: Дункан Джонс / Duncan Jones-В ролях: Сэм Рокуэлл, Кевин Спейси (голос), Мэтт Берри, Робин Чок, Доминик МакЭллигот, Кая Скоделарио, Малкольм Стюарт, Бенедикт Вонг-Описание: Контракт Сэма подходит к концу: он провел три года на Луне, следя за автоматизированной станцией по добыче редкого газа. Три долгих года в полном одиночестве, если не считать говорящего робота ГЕРТИ, могут изменить любого. За две недели до возвращения на землю Сэм встречает своего сменщика — человека, как две капли воды похожего на него. Может, это галлюцинация? Или плод его больного воображения? Может, что-то случилось на Земле, и видео-сообщения из дома, поддерживавшие Сэма все эти годы, ложь?-IMDB
Аудио кодек: AC3, DTS
Аудио: DTS 5.1 / 48 kHz / 1510 kbps / 24-bit - Гаврилов
Аудио #2: DD 5.1 / 48 kHz / 448 kbps / 16-bit - Гаврилов
Cубтитры: отсутствуют
Общее
Полное имя : E:\2221\луна.dts
Формат : DTS
Формат/Информация : Digital Theater Systems
Размер файла : 1,02 Гбайт
Продолжительность : 1 ч. 37 м.
Общий поток : 1510 Кбит/сек
Аудио
Формат : DTS
Формат/Информация : Digital Theater Systems
Продолжительность : 1 ч. 37 м.
Вид битрейта : Постоянный
Битрейт : 1510 Кбит/сек
Каналы : 6 каналов
Расположение каналов : Front: L C R, Side: L R, LFE
Частота : 48,0 КГц
Битовая глубина : 24 бит
Метод сжатия : С потерями
Размер потока : 1,02 Гбайт (100%)
Общее
Полное имя : E:\moon.2012\луна.ac3
Формат : AC-3
Формат/Информация : Audio Coding 3
Размер файла : 311 Мбайт
Продолжительность : 1 ч. 37 м.
Общий поток : 448 Кбит/сек
Аудио
Формат : AC-3
Формат/Информация : Audio Coding 3
Расширение режима : CM (complete main)
Продолжительность : 1 ч. 37 м.
Вид битрейта : Постоянный
Битрейт : 448 Кбит/сек
Каналы : 6 каналов
Расположение каналов : Front: L C R, Side: L R, LFE
Частота : 48,0 КГц
Битовая глубина : 16 бит
Метод сжатия : С потерями
Размер потока : 311 Мбайт (100%)
Download / Скачать

Хотите скачать бесплатно? Зарегистрируйтесь на сайте (ссылка на регистрацию). Pirat.ca - самый быстрый торрент трекер в рунете!

Как скачивать  ·   Что такое торрент  ·   Рейтинг и ограничения

anton966

10380

Пост 21-Сен-2012 15:31 (спустя 1 месяц 7 дней)

[Q] 

Скажи, Олег, ты просто не хочешь / не умеешь подготавливать голос перед наложением? И как ты можешь такое http://www.mediafire.com/?zfxd963bcawrpk4 называть HD-MA? У тебя фоновый шум на уровне -48 ДБ, не говоря о вздохах и посторонних шумах, как скрип стула, шум от взятого микрофона и т.д.
Это позор даже для двух канального звука. Так не пойдет. Ты не только себя не уважаешь как сборщика, ты сайт не уважаешь.
Да, забыл. У тебя Гаврилов идёт +27ms.

_________________
" ...потому что во многой мудрости много печали; и кто умножает познания, умножает скорбь" ( Еккл 1:17,18)
[Профиль]  [ЛС] 

markinscor

Шкипер

Пост 22-Сен-2012 14:04 (спустя 22 часа)

[Q] 

230574Да, забыл. У тебя Гаврилов идёт +27ms.
последствия сборки в сюите, нужно отрезать 21мс после сбоорки(в еакто).
[Профиль]  [ЛС] 

Consul

13168

Пост 04-Дек-2012 23:17 (спустя 2 месяца 12 дней)

[Q] 

Полного источника не было: 3 дня
Стал на раздачу.
veljeys, KSerge17 забирайте.

_________________
Не говорите мне что делать, и я не скажу куда вам пойти.

Нет раздающих-напишите ЛС скачавшим. Проблемы со скоростью-ваши проблемы.
[Профиль]  [ЛС] 

KSerge17

Лоцман

Пост 04-Дек-2012 23:43 (спустя 26 минут)

[Q] 

спасиб.)
[Профиль]  [ЛС] 

Consul

13168

Пост 05-Дек-2012 00:15 (спустя 31 минута)

[Q] 

KSerge17
Пожалуйста! Это я так, мимо проходил. bs

_________________
Не говорите мне что делать, и я не скажу куда вам пойти.

Нет раздающих-напишите ЛС скачавшим. Проблемы со скоростью-ваши проблемы.
[Профиль]  [ЛС] 

westmax

Лоцман

Пост 14-Июн-2013 17:30 (спустя 6 месяцев 9 дней)

[Q] 

Привет!
А можно попросить кого-нибудь вернуться на раздачу dts дорожки? А то скачалось 82% и уже несколько дней тишина...
P.S. Все-таки скачалось, спасибо автору раздачи а так же сиду поддержавшему ее!
[Профиль]  [ЛС] 
Показать сообщения:    
Ответить на тему

Текущее время: Сегодня 22:34

Часовой пояс: GMT + 4



Вы не можете начинать темы
Вы не можете отвечать на сообщения
Вы не можете редактировать свои сообщения
Вы не можете удалять свои сообщения
Вы не можете голосовать в опросах
Вы не можете прикреплять файлы к сообщениям
Вы не можете скачивать файлы

▼ Вниз