Уважаемый Гость!
Вы можете поддержать проект и зарегистрироваться у наших партнеров - онлайн-стратегия MyLands. При регистрации в игре Вы получите код, который сможете активировать после регистрации на pirat.ca и получить 1000 дублонов.

Ваш код:
6e74277781110e9b49c3c0dd24e1bed54391613e
 
     

Молчание ягнят / The Silence of the Lambs (Джонатан Демме / Jonathan Demme) [1991 г., триллер, криминал, детектив, AC3, DTS] AVO (Гаврилов)

Ответить на тему
 
Автор
Сообщение

Пост 13-Авг-2012 18:45

[Q] 

Kampfer161

Корсар

-Молчание ягнят / The Silence of the Lambs-- Производство: США
Год выпуска: 1991 г.
Жанр: триллер, криминал, детектив
Продолжительность: 01:58:31
Перевод: Авторский (одноголосый) Гаврилов
Оригинальный аудиопоток: английский
Режиссер: Джонатан Демме / Jonathan Demme-В ролях: Джоди Фостер, Энтони Хопкинс, Скотт Гленн, Тед Левайн, Брук Смит, Энтони Хилд, Кейси Леммонс, Дайан Бэйкер, Фрэнки Фэйзон, Дэн Батлер-Описание: Психопат похищает и убивает молодых женщин по всему Среднему Западу Америки. ФБР, уверенное в том, что все преступления совершены одним и тем же человеком, поручает агенту Клариссе Стерлинг встретиться с заключенным-маньяком, который мог бы объяснить следствию психологические мотивы серийного убийцы и тем самым вывести на его след. Заключенный, доктор психиатрии Ганнибал Лектер, отбывает наказание за убийства и каннибализм. Он согласен помочь Клариссе лишь в том случае, если она попотчует его больное воображение подробностями своей сложной личной жизни. Такие двусмысленные отношения не только порождают в душе Клариссы внутренний конфликт, но и сталкивают ее лицом к лицу с помешанным до гениальности убийцей. Воплощение дьявола настолько сильно, что ей может не хватить мужества и стойкости, чтобы остановить его...-IMDB КиноПоиск
Аудио кодек: AC3, DTS
Аудио: DTS 5.1 / 48 kHz / 1510 kbps / 24-bit - Гаврилов
Аудио #2: DD 5.1 / 48 kHz / 448 kbps / 16-bit) - Гаврилов
Общее
Полное имя : F:\1\ягнята.dts
Формат : DTS
Формат/Информация : Digital Theater Systems
Размер файла : 1,25 Гбайт
Продолжительность : 1 ч. 58 м.
Общий поток : 1510 Кбит/сек
Аудио
Формат : DTS
Формат/Информация : Digital Theater Systems
Продолжительность : 1 ч. 58 м.
Вид битрейта : Постоянный
Битрейт : 1510 Кбит/сек
Каналы : 6 каналов
Расположение каналов : Front: L C R, Side: L R, LFE
Частота : 48,0 КГц
Битовая глубина : 24 бит
Метод сжатия : С потерями
Размер потока : 1,25 Гбайт
Общее
Полное имя : F:\ягнята\ягнята.ac3
Формат : AC-3
Формат/Информация : Audio Coding 3
Размер файла : 380 Мбайт
Продолжительность : 1 ч. 58 м.
Общий поток : 448 Кбит/сек
Аудио
Формат : AC-3
Формат/Информация : Audio Coding 3
Расширение режима : CM (complete main)
Продолжительность : 1 ч. 58 м.
Вид битрейта : Постоянный
Битрейт : 448 Кбит/сек
Каналы : 6 каналов
Расположение каналов : Front: L C R, Side: L R, LFE
Частота : 48,0 КГц
Битовая глубина : 16 бит
Метод сжатия : С потерями
Размер потока : 380 Мбайт (100%)
Download / Скачать

Хотите скачать бесплатно? Зарегистрируйтесь на сайте (ссылка на регистрацию). Pirat.ca - самый быстрый торрент трекер в рунете!

Как скачивать  ·   Что такое торрент  ·   Рейтинг и ограничения

vik19662007

Гроза морей

2985

Пост 13-Авг-2012 19:30 (спустя 44 минуты)

[Q] 

Спасибо.

_________________
Не стесняйся пьяница носа своего, он ведь с нашим знаменем цвета одного.
[Профиль]  [ЛС] 

Masterion

Морской Волк

Пост 13-Авг-2012 20:53 (спустя 1 час 22 минуты)

[Q] 

Практически классика.
Спасибо.
[Профиль]  [ЛС] 

LAVR

Корсар

55

Пост 17-Авг-2012 22:05 (спустя 4 дня)

[Q] 

Перевод Андрея Юрьевича как всегда на высоте. Давно уже хотел посмотреть этот знаменитый криминальный триллер в его озвучке. Кстати, в начале фильма МЭТР смачно матерком отжёг! :)))
[Профиль]  [ЛС] 

Dimec89

Корсар

Пост 18-Авг-2012 15:27 (спустя 17 часов)

[Q] 

Перевод Андрея Юрьевича как всегда на высоте. Давно уже хотел посмотреть этот знаменитый криминальный триллер в его озвучке. Кстати, в начале фильма МЭТР смачно матерком отжёг! :)))
очень был удивлен этому кстати я)
[Профиль]  [ЛС] 
Показать сообщения:    
Ответить на тему

Текущее время: Сегодня 13:42

Часовой пояс: GMT + 4



Вы не можете начинать темы
Вы не можете отвечать на сообщения
Вы не можете редактировать свои сообщения
Вы не можете удалять свои сообщения
Вы не можете голосовать в опросах
Вы не можете прикреплять файлы к сообщениям
Вы не можете скачивать файлы

▼ Вниз