Уважаемый Гость!
Вы можете поддержать проект и зарегистрироваться у наших партнеров - онлайн-стратегия MyLands. При регистрации в игре Вы получите код, который сможете активировать после регистрации на pirat.ca и получить 1000 дублонов.

Ваш код:
42dfaac977a7ef29e5167536f5b22936dba18477
 
     

Рокки Бальбоа / Rocky Balboa (Сильвестр Сталлоне / Sylvester Stallone) [2006 г., спорт, драма, AC3, DTS] AVO (Андрей Гаврилов)

Ответить на тему
 
Автор
Сообщение

Пост 04-Сен-2012 20:59

[Q] 

shitman82

Рокки Бальбоа / Rocky Balboa Год выпуска: 2006
Производство: США
Жанр: спорт, драма
Продолжительность: 01:41:47
Перевод: Авторский (одноголосый, закадровый) Андрей Гаврилов
Режиссер: Сильвестр Сталлоне / Sylvester Stallone
В ролях: Сильвестр Сталлоне, Берт Янг, Мило Вентимиглиа, Джеральдин Хьюз, Джеймс Френсис Келли III, Тони Бертон, А Дж. Бенза, Талия Шайр, Генри Дж. Сандерс, Антонио Тэрвер, Педро Ловелл, Анджела Бойд, Морин Шиллинг, Картер Митчел
Описание: Рокки отошел от дел, занявшись ресторанным бизнесом и все еще тяжело переживает смерть своей жены Эдриан. Пытаясь развеять образовавшуюся пустоту, Бальбоа решает вернуться на ринг для боев местного значения с боксерами в легком весе. Но когда он соглашается выступить против действующего чемпиона-тяжеловеса Мэйсона Диксона, пресса неожиданно проявляет к возвращению Рокки пристальный интерес.
Аудио кодек: AC3, DTS
Аудио: Russian: AC3 Dolby Digital 6 channels / 48 kHz / 448 kbps / 16-bit - Андрей Гаврилов
Аудио #2: Russian: DTS 6 channels / 48 kHz / 1 510 kbps / 24-bit - Андрей Гаврилов
General
Format : AC-3
Format/Info : Audio Coding 3
File size : 326 MiB
Duration : 1h 41mn
Overall bit rate mode : Constant
Overall bit rate : 448 Kbps
Audio
Format : AC-3
Format/Info : Audio Coding 3
Mode extension : CM (complete main)
Format settings, Endianness : Big
Duration : 1h 41mn
Bit rate mode : Constant
Bit rate : 448 Kbps
Channel(s) : 6 channels
Channel positions : Front: L C R, Side: L R, LFE
Sampling rate : 48.0 KHz
Bit depth : 16 bits
Compression mode : Lossy
Stream size : 326 MiB (100%)
General
Format : DTS
Format/Info : Digital Theater Systems
File size : 1.07 GiB
Duration : 1h 41mn
Overall bit rate mode : Constant
Overall bit rate : 1 510 Kbps
Audio
Format : DTS
Format/Info : Digital Theater Systems
Duration : 1h 41mn
Bit rate mode : Constant
Bit rate : 1 510 Kbps
Channel(s) : 6 channels
Channel positions : Front: L C R, Side: L R, LFE
Sampling rate : 48.0 KHz
Bit depth : 24 bits
Compression mode : Lossy
Stream size : 1.07 GiB (100%)
За сборку дорожек с переводом Гаврилова огромное спасибо и низкий поклон edsz
За перевод у А.Ю.Гаврилова в рамках сайта огромное спасибо
1. shitman82
2. Джосс
3. SavineX
4. dunhill200
5. therox
6. lexal
7. Chistobaev
8. feldeger
9. Pain_70
10. Wolf_Larsen
11. Old Pirat JS
12. fandvd
13. hulahup
14. spacenoise
15. Guyver
16. zetrob
17. GansAn
18. gemini
19. Rolly Tyler
20. GaryH
21. maximus10-99
22. Loki1982
23. Shumway
За оформление постера большое спасибо камраду Consul
Download / Скачать

Хотите скачать бесплатно? Зарегистрируйтесь на сайте (ссылка на регистрацию). Pirat.ca - самый быстрый торрент трекер в рунете!

Как скачивать  ·   Что такое торрент  ·   Рейтинг и ограничения

westmax

Лоцман

Пост 03-Дек-2012 22:01 (спустя 2 месяца 29 дней)

[Q] 

Спасибо! Вот только ни одного сида... Вернитесь на раздачу пожалуйста.
[Профиль]  [ЛС] 

shitman82 ®

147

Пост 03-Дек-2012 22:19 (спустя 18 минут)

[Q] 

westmax, не за что, раздачу включил, надеюсь инет сегодня глючить не будет

_________________
Сегодня Вы в моем проекте, завтра я в Вашем. © Wolf_Larsen
[Профиль]  [ЛС] 

westmax

Лоцман

Пост 03-Дек-2012 22:29 (спустя 9 минут)

[Q] 

shitman82
Пошла закачка! :) Спасибо большое!
[Профиль]  [ЛС] 
Показать сообщения:    
Ответить на тему

Текущее время: Сегодня 22:36

Часовой пояс: GMT + 4



Вы не можете начинать темы
Вы не можете отвечать на сообщения
Вы не можете редактировать свои сообщения
Вы не можете удалять свои сообщения
Вы не можете голосовать в опросах
Вы не можете прикреплять файлы к сообщениям
Вы не можете скачивать файлы

▼ Вниз