Уважаемый Гость!
Вы можете поддержать проект и зарегистрироваться у наших партнеров - онлайн-стратегия MyLands. При регистрации в игре Вы получите код, который сможете активировать после регистрации на pirat.ca и получить 1000 дублонов.

Ваш код:
42dfaac977a7ef29e5167536f5b22936dba18477
 
     

Ограбление на Бейкер-Стрит / The Bank Job (Роджер Дональдсон / Roger Donaldson) [2008 г., боевик, триллер, драма, криминал, DTS, АС3] AVO (Гаврилов)

Ответить на тему
 
Автор
Сообщение

Пост 20-Сен-2012 18:46

[Q] 

Kampfer161

Корсар

Ограбление на Бейкер-Стрит / The Bank Job
Год выпуска: 2008
Производство: США
Жанр: боевик, триллер, драма, криминал
Продолжительность: 01:52:01
Перевод: Авторский (одноголосый, закадровый) Гаврилов
Субтитры: отсутствуют
Режиссер: Роджер Дональдсон / Roger Donaldson
В ролях: Джейсон Стэтхэм, Саффрон Берроуз, Стефен Кэмпбелл Мур, Дэниэл Мейс, Джеймс Фолкнер, Алки Дэвид, Майкл Джибсон, Джорджия Тейлор, Ричард Линтерн, Питер Боулз
Описание: Фильм основан на реальных событиях, происходивших в Великобритании в 1971 году. После 35 лет забвения мы наконец узнаем об одном из самых легендарных ограблений банка в истории Великобритании, когда не было произведено ни одного ареста и не было найдено ни малейшего следа похищенных денег.
Налёт на банк на Бейкер Стрит был инициирован высокопоставленными официальными лицами, пытающимися добраться до заветной банковской ячейки, в которой хозяйка одного из известнейших борделей Лондона хранила секретную информацию. Теперь запрет на разглашение информации об этом ограблении снят британским правительством, и перед нами открывается красочная, лихо закрученная история, полная тайн, сюрпризов и неожиданных поворотов.
В проекте по сбору средств на перевод у Гаврилова участвовали:
1. SavineX
2. shitman82
3. audiolubitel
4. milocerd0v
5. Pain_70
6. Джосс
7. dunhill200
8. Wolf_Larsen
9. therox
10. Old Pirat JS
11. rocky4
12. jorn.vv
13. zetrob
14. GaryH
15. vadamk
16. Guyver
17. spacenoise
18. nikson50
19. эвоки
Аудио кодек: DTS, АС3
Аудио : DTS 5.1 / 48 kHz / 1509 kbps / 16-bit - Гаврилов
Аудио #2: DD 5.1 / 48 kHz / 448 kbps / 16-bit - Гаврилов
Общее
Полное имя : F:\The.Bank.Job.2008\The.Bank.Job\The.Bank.Job.ac3
Формат : AC-3
Формат/Информация : Audio Coding 3
Размер файла : 359 Мбайт
Продолжительность : 1 ч. 52 м.
Общий поток : 448 Кбит/сек
Аудио
Формат : AC-3
Формат/Информация : Audio Coding 3
Расширение режима : CM (complete main)
Продолжительность : 1 ч. 52 м.
Вид битрейта : Постоянный
Битрейт : 448 Кбит/сек
Каналы : 6 каналов
Расположение каналов : Front: L C R, Side: L R, LFE
Частота : 48,0 КГц
Битовая глубина : 16 бит
Метод сжатия : С потерями
Размер потока : 359 Мбайт (100%)
Общее
Полное имя : F:\The.Bank.Job.2008\The.Bank.Job\The.Bank.Job.dts
Формат : DTS
Формат/Информация : Digital Theater Systems
Размер файла : 1,18 Гбайт
Продолжительность : 1 ч. 51 м.
Общий поток : 1510 Кбит/сек
Аудио
Формат : DTS
Формат/Информация : Digital Theater Systems
Продолжительность : 1 ч. 51 м.
Вид битрейта : Постоянный
Битрейт : 1510 Кбит/сек
Каналы : 6 каналов
Расположение каналов : Front: L C R, Side: L R, LFE
Частота : 48,0 КГц
Битовая глубина : 16 бит
Метод сжатия : С потерями
Размер потока : 1,18 Гбайт (100%)
Download / Скачать

Хотите скачать бесплатно? Зарегистрируйтесь на сайте (ссылка на регистрацию). Pirat.ca - самый быстрый торрент трекер в рунете!

Как скачивать  ·   Что такое торрент  ·   Рейтинг и ограничения



Последний раз редактировалось: Kampfer161 (2012-09-20 21:06), всего редактировалось 1 раз
Показать сообщения:    
Ответить на тему

Текущее время: Сегодня 22:25

Часовой пояс: GMT + 4



Вы не можете начинать темы
Вы не можете отвечать на сообщения
Вы не можете редактировать свои сообщения
Вы не можете удалять свои сообщения
Вы не можете голосовать в опросах
Вы не можете прикреплять файлы к сообщениям
Вы не можете скачивать файлы

▼ Вниз