Уважаемый Гость!
Вы можете поддержать проект и зарегистрироваться у наших партнеров - онлайн-стратегия MyLands. При регистрации в игре Вы получите код, который сможете активировать после регистрации на pirat.ca и получить 1000 дублонов.

Ваш код:
42dfaac977a7ef29e5167536f5b22936dba18477
 
     

Чужой квадрология / Alien Quadrilogy (Ридли Скотт / Ridley Scott, Джеймс Кэмерон / James Cameron, Дэвид Финчер / David Fincher, Жан-Пьер Жёне / Jean-Pierre Jeunet) [1979-1997 г, ужасы, фантастика, боевик, AC3] [Theatrical & Director's] AVO

Ответить на тему
 
Автор
Сообщение

Пост 28-Авг-2013 11:04

[Q] 

Linnan

Чужой квадрология / Alien Quadrilogy (Theatrical Cut & Director's Cut)
-
Чужой / Alien
Год выпуска: 1979
Производство: Великобритания, США
Жанр: ужасы, фантастика, боевик
Продолжительность: Theatrical Cut ~ 01:51:10, Director's Cut ~ 01:55:49
Theatrical Cut
Перевод: Авторский (одноголосый, закадровый) Володарский
Перевод 2: Авторский (одноголосый, закадровый) Гаврилов
Перевод 3: Авторский (одноголосый, закадровый) Горчаков 1
Перевод 4: Авторский (одноголосый, закадровый) Горчаков 2
Перевод 5: Авторский (одноголосый, закадровый) Горчаков 3
Перевод 6: Авторский (одноголосый, закадровый) Живов
Перевод 7: Авторский (одноголосый, закадровый) Махонько
Перевод 8: Авторский (одноголосый, закадровый) Неизвестный
Director's Cut
Перевод: Авторский (одноголосый, закадровый) Гаврилов
Перевод 2: Авторский (одноголосый, закадровый) Живов
Режиссер: Ридли Скотт / Ridley Scott
В ролях: Сигурни Уивер, Том Скеррит, Иэн Холм, Джон Хёрт, Гарри Дин Стэнтон, Вероника Картрайт, Яфет Котто, Боладжи Бадеджо, Хелен Хортон, Эдди Пауэлл
Описание: В далеком будущем возвращающийся на Землю грузовой космический корабль перехватывает исходящий с неизвестной планеты неопознанный сигнал. Экипаж принимает решение совершить посадку и разобраться, в чем дело. Оказавшись на планете, астронавты повсюду обнаруживают неопознанные предметы, по виду напоминающие гигантские коконы…

Аудио кодек: AC3
Theatrical Cut PAL
Аудио : 192 kbps, 2 ch, 48 КHz - Володарский
Аудио # 2: 192 kbps, 2 ch, 48 КHz - Гаврилов
Аудио # 3: 192 kbps, 2 ch, 48 КHz - Горчаков 1
Аудио # 4: 384 kbps, 6 ch, 48 КHz - Горчаков 2
Аудио # 5: 384 kbps, 6 ch, 48 КHz - Горчаков 3
Аудио # 6: 192 kbps, 2 ch, 48 КHz - Живов
Аудио # 7: 192 kbps, 2 ch, 48 КHz - Махонько
Аудио # 8: 192 kbps, 2 ch, 48 КHz - Неизвестный
Director's Cut NTSC
Аудио: 448 kbps, 6 ch, 48 КHz - Гаврилов
Аудио # 2: 448 kbps, 6 ch, 48 КHz - Живов
-
Чужие / Aliens
Год выпуска: 1986
Производство: Великобритания, США
Жанр: ужасы, фантастика, боевик
Продолжительность: Theatrical Cut ~ 02:11:34, Director's Cut ~ 02:34:25
Theatrical Cut
Перевод: Авторский (одноголосый, закадровый) Гаврилов
Перевод 2: Авторский (одноголосый, закадровый) Горчаков 1
Перевод 3: Авторский (одноголосый, закадровый) Горчаков 2
Перевод 4: Авторский (одноголосый, закадровый) Михалёв
Перевод 5: Авторский (одноголосый, закадровый) Неизвестный
Director's Cut
Перевод: Авторский (одноголосый, закадровый) Гаврилов
Перевод 2: Авторский (одноголосый, закадровый) Горчаков
Перевод 3: Авторский (одноголосый, закадровый) Живов
Перевод 4: Авторский (одноголосый, закадровый) Кашкин
Перевод 5: Авторский (одноголосый, закадровый) Марченко
Перевод 6: Авторский (одноголосый, закадровый) Михалёв
Перевод 7: Авторский (одноголосый, закадровый) Неизвестный
Режиссер:Джеймс Кэмерон / James Cameron
В ролях: Сигурни Уивер, Майкл Бьен, Кэрри Хенн, Пол Райзер, Лэнс Хенриксен, Билл Пэкстон, Дженетт Голдстин, Уильям Хоуп, Эл Мэтьюз, Марк Ролстон
Описание: Чужой — совершенный организм. Идеальная машина для убийства, чье физическое превосходство сочетается с его феноменальной жаждой уничтожения. Офицер Элен Рипли и команда космического корабля Ностромо один раз уже встретилась с такой тварью. В живых осталась только Элен.
Капсула с Элен найдена спасателями после многих лет блуждания в космосе. Ей сообщают, что планета L.V. 426 колонизирована, и ей придется вернуться туда, где начался ее кошмар, ибо связь с колонистами прервалась. И вот в составе группы космического десанта Рипли отправляется на проклятую планету. Но теперь их там поджидает не один Чужой, а тысячи. Кто сможет выжить в этой войне: чудовища, способные только убивать, или люди, способные мыслить?

Аудио кодек: AC3
Theatrical Cut PAL
Аудио : 384 kbps, 6 ch, 48 КHz - Гаврилов
Аудио # 2: 192 kbps, 2 ch, 48 КHz - Горчаков 1
Аудио # 3: 192 kbps, 2 ch, 48 КHz - Горчаков 2
Аудио # 4: 192 kbps, 2 ch, 48 КHz - Михалёв
Аудио # 5: 192 kbps, 2 ch, 48 КHz - Неизвестный
Director's Cut NTSC
Аудио: 448 kbps, 6 ch, 48 КHz - Гаврилов
Аудио # 2: 384 kbps, 6 ch, 48 КHz - Горчаков
Аудио # 3: 192 kbps, 2 ch, 48 КHz - Живов
Аудио # 4: 384 kbps, 6 ch, 48 КHz - Кашкин
Аудио # 5: 448 kbps, 6 ch, 48 КHz - Марченко
Аудио # 6: 192 kbps, 2 ch, 48 КHz - Михалёв
Аудио # 7: 192 kbps, 2 ch, 48 КHz - Неизвестный
-
Чужой 3 / Alien 3
Год выпуска: 1992
Производство: США
Жанр: ужасы, фантастика, боевик
Продолжительность: Theatrical Cut ~ 01:54:51, Director's Cut ~ 02:24:52
Theatrical Cut
Перевод: Авторский (одноголосый, закадровый) Гаврилов
Перевод 2: Авторский (одноголосый, закадровый) Горчаков
Перевод 3: Авторский (одноголосый, закадровый) Живов
Director's Cut
Перевод: Авторский (одноголосый, закадровый) Гаврилов
Перевод 2: Авторский (одноголосый, закадровый) Живов
Режиссер: Дэвид Финчер / David Fincher
В ролях:Сигурни Уивер, Чарльз С. Даттон, Чарльз Дэнс, Пол МакГанн, Брайан Гловер, Ральф Браун, Дэниэл Уэбб, Кристофер Джон Филдс, Холт МакКэллани, Лэнс Хенриксен
Описание: После бегства с планеты «Чужих» космический корабль Рипли терпит катастрофу вблизи так называемой планеты — тюрьмы, места, где отсиживают свой срок убийцы, насильники и прочие отбросы общества. Вместе с Рипли на эту планету попадает зародыш чужого, который и был причиной гибели корабля. Довольно быстро он превращается в гигантскую, зубастую тварь и начинает свое темное дело.
Его жертвами становятся десятки безоружных заключенных. Кровь брызжет фонтаном, куски человеческого мяса разлетаются во все стороны. И кажется, что остановить эту машину смерти не сможет никто, никто кроме отважной, но увы не бессмертной девушки по имени Рипли.

Аудио кодек: AC3
Theatrical Cut NTSC
Аудио : 448 kbps, 6 ch, 48 КHz - Гаврилов
Аудио # 2: 448 kbps, 6 ch, 48 КHz - Горчаков
Аудио # 3: 448 kbps, 6 ch, 48 КHz - Живов
Director's Cut NTSC
Аудио: 448 kbps, 6 ch, 48 КHz - Гаврилов
Аудио # 2: 448 kbps, 6 ch, 48 КHz - Живов
-
Чужой 4: Воскрешение/ Alien: Resurrection
Год выпуска: 1997
Производство: США
Жанр: ужасы, фантастика, боевик
Продолжительность: Theatrical Cut ~ 01:48:44, Director's Cut ~ 01:56:08
Theatrical Cut
Перевод: Авторский (одноголосый, закадровый) Визгунов
Перевод 2: Авторский (одноголосый, закадровый) Гаврилов
Перевод 3: Авторский (одноголосый, закадровый) Горчаков
Перевод 4: Авторский (одноголосый, закадровый) Неизвестный
Director's Cut
Перевод: Авторский (одноголосый, закадровый) Гаврилов
Перевод 2: Авторский (одноголосый, закадровый) Живов
Режиссер: Жан-Пьер Жёне / Jean-Pierre Jeunet
В ролях: Сигурни Уивер, Вайнона Райдер, Доминик Пинон, Рон Перлман, Гари Дурдан, Майкл Уинкотт, Ким Флауэрс, Дэн Хедайя, Дж.Э. Фримен, Брэд Дуриф
Описание: Спустя двести лет после событий, произошедших на планете-тюрьме, группа ученых, опекаемых военным командованием, клонирует Эллен Рипли, чтобы с ее помощью заполучить детеныша инопланетного монстра. Вскоре он уже сам начинает плодиться, производя на свет новую породу — помесь кровожадного пришельца и… человека.

Аудио кодек: AC3
Theatrical Cut NTSC
Аудио : 192 kbps, 2 ch, 48 КHz - Визгунов
Аудио # 2: 448 kbps, 6 ch, 48 КHz - Гаврилов
Аудио # 3: 448 kbps, 6 ch, 48 КHz - Горчаков
Аудио # 4: 192 kbps, 2 ch, 48 КHz - Неизвестный
Director's Cut NTSC
Аудио: 448 kbps, 6 ch, 48 КHz - Гаврилов
Аудио # 2: 448 kbps, 6 ch, 48 КHz - Живов
-
Общее
Полное имя : F:\Загрузки торрента\Aliens Quadrilogy AVO [pirat.ca]\Alien 1 DC NTSC Gavrilov.ac3
Формат : AC-3
Формат/Информация : Audio Coding 3
Размер файла : 371 Мбайт
Продолжительность : 1 ч. 55 м.
Режим общего битрейта : Постоянный
Общий поток : 448 Кбит/сек
Аудио
Формат : AC-3
Формат/Информация : Audio Coding 3
Расширение режима : CM (complete main)
Продолжительность : 1 ч. 55 м.
Вид битрейта : Постоянный
Битрейт : 448 Кбит/сек
Каналы : 6 каналов
Расположение каналов : Front: L C R, Side: L R, LFE
Частота : 48,0 КГц
Битовая глубина : 16 бит
Метод сжатия : С потерями
Размер потока : 371 Мбайт (100%)
Общее
Полное имя : F:\Загрузки торрента\Aliens Quadrilogy AVO [pirat.ca]\Alien 1 DC NTSC Jivov.ac3
Формат : AC-3
Формат/Информация : Audio Coding 3
Размер файла : 371 Мбайт
Продолжительность : 1 ч. 55 м.
Режим общего битрейта : Постоянный
Общий поток : 448 Кбит/сек
Аудио
Формат : AC-3
Формат/Информация : Audio Coding 3
Расширение режима : CM (complete main)
Продолжительность : 1 ч. 55 м.
Вид битрейта : Постоянный
Битрейт : 448 Кбит/сек
Каналы : 6 каналов
Расположение каналов : Front: L C R, Side: L R, LFE
Частота : 48,0 КГц
Битовая глубина : 16 бит
Метод сжатия : С потерями
Размер потока : 371 Мбайт (100%)
Общее
Полное имя : F:\Загрузки торрента\Aliens Quadrilogy AVO [pirat.ca]\Alien 1 TC PAL Gavrilov.ac3
Формат : AC-3
Формат/Информация : Audio Coding 3
Размер файла : 154 Мбайт
Продолжительность : 1 ч. 51 м.
Режим общего битрейта : Постоянный
Общий поток : 192 Кбит/сек
Аудио
Формат : AC-3
Формат/Информация : Audio Coding 3
Расширение режима : CM (complete main)
Продолжительность : 1 ч. 51 м.
Вид битрейта : Постоянный
Битрейт : 192 Кбит/сек
Каналы : 2 канала
Расположение каналов : Front: L R
Частота : 48,0 КГц
Битовая глубина : 16 бит
Метод сжатия : С потерями
Размер потока : 154 Мбайт (100%)
Общее
Полное имя : F:\Загрузки торрента\Aliens Quadrilogy AVO [pirat.ca]\Alien 1 TC PAL Gorchakov 1.ac3
Формат : AC-3
Формат/Информация : Audio Coding 3
Размер файла : 154 Мбайт
Продолжительность : 1 ч. 51 м.
Режим общего битрейта : Постоянный
Общий поток : 192 Кбит/сек
Аудио
Формат : AC-3
Формат/Информация : Audio Coding 3
Расширение режима : CM (complete main)
Продолжительность : 1 ч. 51 м.
Вид битрейта : Постоянный
Битрейт : 192 Кбит/сек
Каналы : 2 канала
Расположение каналов : Front: L R
Частота : 48,0 КГц
Битовая глубина : 16 бит
Метод сжатия : С потерями
Размер потока : 154 Мбайт (100%)
Общее
Полное имя : F:\Загрузки торрента\Aliens Quadrilogy AVO [pirat.ca]\Alien 1 TC PAL Gorchakov 2.ac3
Формат : Wave
Размер файла : 308 Мбайт
Продолжительность : 1 ч. 51 м.
Режим общего битрейта : Постоянный
Общий поток : 384 Кбит/сек
Аудио
Идентификатор : 0
Формат : AC-3
Формат/Информация : Audio Coding 3
Параметр Endianness формата : Little
Идентификатор кодека : 2000
Продолжительность : 1 ч. 51 м.
Вид битрейта : Постоянный
Битрейт : 384 Кбит/сек
Каналы : 6 каналов
Частота : 48,0 КГц
Метод сжатия : С потерями
Размер потока : 308 Мбайт (100%)
Общее
Полное имя : F:\Загрузки торрента\Aliens Quadrilogy AVO [pirat.ca]\Alien 1 TC PAL Gorchakov 3.ac3
Формат : Wave
Размер файла : 308 Мбайт
Продолжительность : 1 ч. 51 м.
Режим общего битрейта : Постоянный
Общий поток : 384 Кбит/сек
Аудио
Идентификатор : 0
Формат : AC-3
Формат/Информация : Audio Coding 3
Параметр Endianness формата : Little
Идентификатор кодека : 2000
Продолжительность : 1 ч. 51 м.
Вид битрейта : Постоянный
Битрейт : 384 Кбит/сек
Каналы : 6 каналов
Частота : 48,0 КГц
Метод сжатия : С потерями
Размер потока : 308 Мбайт (100%)
Общее
Полное имя : F:\Загрузки торрента\Aliens Quadrilogy AVO [pirat.ca]\Alien 1 TC PAL Jivov.ac3
Формат : Wave
Размер файла : 154 Мбайт
Продолжительность : 1 ч. 51 м.
Режим общего битрейта : Постоянный
Общий поток : 192 Кбит/сек
Аудио
Идентификатор : 0
Формат : AC-3
Формат/Информация : Audio Coding 3
Параметр Endianness формата : Little
Идентификатор кодека : 2000
Продолжительность : 1 ч. 51 м.
Вид битрейта : Постоянный
Битрейт : 192 Кбит/сек
Каналы : 2 канала
Частота : 48,0 КГц
Метод сжатия : С потерями
Размер потока : 154 Мбайт (100%)
Общее
Полное имя : F:\Загрузки торрента\Aliens Quadrilogy AVO [pirat.ca]\Alien 1 TC PAL Mahonko.ac3
Формат : Wave
Размер файла : 154 Мбайт
Продолжительность : 1 ч. 51 м.
Режим общего битрейта : Постоянный
Общий поток : 192 Кбит/сек
Аудио
Идентификатор : 0
Формат : AC-3
Формат/Информация : Audio Coding 3
Параметр Endianness формата : Little
Идентификатор кодека : 2000
Продолжительность : 1 ч. 51 м.
Вид битрейта : Постоянный
Битрейт : 192 Кбит/сек
Каналы : 2 канала
Частота : 48,0 КГц
Метод сжатия : С потерями
Размер потока : 154 Мбайт (100%)
Общее
Полное имя : F:\Загрузки торрента\Aliens Quadrilogy AVO [pirat.ca]\Alien 1 TC PAL Neizvestny.ac3
Формат : AC-3
Формат/Информация : Audio Coding 3
Размер файла : 154 Мбайт
Продолжительность : 1 ч. 51 м.
Режим общего битрейта : Постоянный
Общий поток : 192 Кбит/сек
Аудио
Формат : AC-3
Формат/Информация : Audio Coding 3
Расширение режима : CM (complete main)
Продолжительность : 1 ч. 51 м.
Вид битрейта : Постоянный
Битрейт : 192 Кбит/сек
Каналы : 2 канала
Расположение каналов : Front: L R
Частота : 48,0 КГц
Битовая глубина : 16 бит
Метод сжатия : С потерями
Размер потока : 154 Мбайт (100%)
Общее
Полное имя : F:\Загрузки торрента\Aliens Quadrilogy AVO [pirat.ca]\Alien 1 TC PAL Volodarskiy.ac3
Формат : Wave
Размер файла : 154 Мбайт
Продолжительность : 1 ч. 51 м.
Режим общего битрейта : Постоянный
Общий поток : 192 Кбит/сек
Аудио
Идентификатор : 0
Формат : AC-3
Формат/Информация : Audio Coding 3
Параметр Endianness формата : Little
Идентификатор кодека : 2000
Продолжительность : 1 ч. 51 м.
Вид битрейта : Постоянный
Битрейт : 192 Кбит/сек
Каналы : 2 канала
Частота : 48,0 КГц
Метод сжатия : С потерями
Размер потока : 154 Мбайт (100%)
Общее
Полное имя : F:\Загрузки торрента\Aliens Quadrilogy AVO [pirat.ca]\Alien 2 DC NTSC Gavrilov.ac3
Формат : AC-3
Формат/Информация : Audio Coding 3
Размер файла : 495 Мбайт
Продолжительность : 2 ч. 34 м.
Режим общего битрейта : Постоянный
Общий поток : 448 Кбит/сек
Аудио
Формат : AC-3
Формат/Информация : Audio Coding 3
Расширение режима : CM (complete main)
Продолжительность : 2 ч. 34 м.
Вид битрейта : Постоянный
Битрейт : 448 Кбит/сек
Каналы : 6 каналов
Расположение каналов : Front: L C R, Side: L R, LFE
Частота : 48,0 КГц
Битовая глубина : 16 бит
Метод сжатия : С потерями
Размер потока : 495 Мбайт (100%)
Общее
Полное имя : F:\Загрузки торрента\Aliens Quadrilogy AVO [pirat.ca]\Alien 2 DC NTSC Gorchakov.ac3
Формат : AC-3
Формат/Информация : Audio Coding 3
Размер файла : 424 Мбайт
Продолжительность : 2 ч. 34 м.
Режим общего битрейта : Постоянный
Общий поток : 384 Кбит/сек
Аудио
Формат : AC-3
Формат/Информация : Audio Coding 3
Расширение режима : CM (complete main)
Продолжительность : 2 ч. 34 м.
Вид битрейта : Постоянный
Битрейт : 384 Кбит/сек
Каналы : 6 каналов
Расположение каналов : Front: L C R, Side: L R, LFE
Частота : 48,0 КГц
Битовая глубина : 16 бит
Метод сжатия : С потерями
Размер потока : 424 Мбайт (100%)
Общее
Полное имя : F:\Загрузки торрента\Aliens Quadrilogy AVO [pirat.ca]\Alien 2 DC NTSC Jivov.ac3
Формат : AC-3
Формат/Информация : Audio Coding 3
Размер файла : 212 Мбайт
Продолжительность : 2 ч. 34 м.
Режим общего битрейта : Постоянный
Общий поток : 192 Кбит/сек
Аудио
Формат : AC-3
Формат/Информация : Audio Coding 3
Расширение режима : CM (complete main)
Продолжительность : 2 ч. 34 м.
Вид битрейта : Постоянный
Битрейт : 192 Кбит/сек
Каналы : 2 канала
Расположение каналов : Front: L R
Частота : 48,0 КГц
Битовая глубина : 16 бит
Метод сжатия : С потерями
Размер потока : 212 Мбайт (100%)
Общее
Полное имя : F:\Загрузки торрента\Aliens Quadrilogy AVO [pirat.ca]\Alien 2 DC NTSC Kashkin.ac3
Формат : AC-3
Формат/Информация : Audio Coding 3
Размер файла : 424 Мбайт
Продолжительность : 2 ч. 34 м.
Режим общего битрейта : Постоянный
Общий поток : 384 Кбит/сек
Аудио
Формат : AC-3
Формат/Информация : Audio Coding 3
Расширение режима : CM (complete main)
Продолжительность : 2 ч. 34 м.
Вид битрейта : Постоянный
Битрейт : 384 Кбит/сек
Каналы : 6 каналов
Расположение каналов : Front: L C R, Side: L R, LFE
Частота : 48,0 КГц
Битовая глубина : 16 бит
Метод сжатия : С потерями
Размер потока : 424 Мбайт (100%)
Общее
Полное имя : F:\Загрузки торрента\Aliens Quadrilogy AVO [pirat.ca]\Alien 2 DC NTSC Marchenko.ac3
Формат : AC-3
Формат/Информация : Audio Coding 3
Размер файла : 495 Мбайт
Продолжительность : 2 ч. 34 м.
Режим общего битрейта : Постоянный
Общий поток : 448 Кбит/сек
Аудио
Формат : AC-3
Формат/Информация : Audio Coding 3
Расширение режима : CM (complete main)
Продолжительность : 2 ч. 34 м.
Вид битрейта : Постоянный
Битрейт : 448 Кбит/сек
Каналы : 6 каналов
Расположение каналов : Front: L C R, Side: L R, LFE
Частота : 48,0 КГц
Битовая глубина : 16 бит
Метод сжатия : С потерями
Размер потока : 495 Мбайт (100%)
Общее
Полное имя : F:\Загрузки торрента\Aliens Quadrilogy AVO [pirat.ca]\Alien 2 DC NTSC Mihalev.ac3
Формат : AC-3
Формат/Информация : Audio Coding 3
Размер файла : 212 Мбайт
Продолжительность : 2 ч. 34 м.
Режим общего битрейта : Постоянный
Общий поток : 192 Кбит/сек
Аудио
Формат : AC-3
Формат/Информация : Audio Coding 3
Расширение режима : CM (complete main)
Продолжительность : 2 ч. 34 м.
Вид битрейта : Постоянный
Битрейт : 192 Кбит/сек
Каналы : 2 канала
Расположение каналов : Front: L R
Частота : 48,0 КГц
Битовая глубина : 16 бит
Метод сжатия : С потерями
Размер потока : 212 Мбайт (100%)
Общее
Полное имя : F:\Загрузки торрента\Aliens Quadrilogy AVO [pirat.ca]\Alien 2 DC NTSC Neizvestny.ac3
Формат : AC-3
Формат/Информация : Audio Coding 3
Размер файла : 212 Мбайт
Продолжительность : 2 ч. 34 м.
Режим общего битрейта : Постоянный
Общий поток : 192 Кбит/сек
Аудио
Формат : AC-3
Формат/Информация : Audio Coding 3
Расширение режима : CM (complete main)
Продолжительность : 2 ч. 34 м.
Вид битрейта : Постоянный
Битрейт : 192 Кбит/сек
Каналы : 2 канала
Расположение каналов : Front: L R
Частота : 48,0 КГц
Битовая глубина : 16 бит
Метод сжатия : С потерями
Размер потока : 212 Мбайт (100%)
Общее
Полное имя : F:\Загрузки торрента\Aliens Quadrilogy AVO [pirat.ca]\Alien 2 TC PAL Gavrilov.ac3
Формат : AC-3
Формат/Информация : Audio Coding 3
Размер файла : 361 Мбайт
Продолжительность : 2 ч. 11 м.
Режим общего битрейта : Постоянный
Общий поток : 384 Кбит/сек
Аудио
Формат : AC-3
Формат/Информация : Audio Coding 3
Расширение режима : CM (complete main)
Продолжительность : 2 ч. 11 м.
Вид битрейта : Постоянный
Битрейт : 384 Кбит/сек
Каналы : 6 каналов
Расположение каналов : Front: L C R, Side: L R, LFE
Частота : 48,0 КГц
Битовая глубина : 16 бит
Метод сжатия : С потерями
Размер потока : 361 Мбайт (100%)
Общее
Полное имя : F:\Загрузки торрента\Aliens Quadrilogy AVO [pirat.ca]\Alien 2 TC PAL Gorchakov 1.ac3
Формат : AC-3
Формат/Информация : Audio Coding 3
Размер файла : 181 Мбайт
Продолжительность : 2 ч. 11 м.
Режим общего битрейта : Постоянный
Общий поток : 192 Кбит/сек
Аудио
Формат : AC-3
Формат/Информация : Audio Coding 3
Расширение режима : CM (complete main)
Продолжительность : 2 ч. 11 м.
Вид битрейта : Постоянный
Битрейт : 192 Кбит/сек
Каналы : 2 канала
Расположение каналов : Front: L R
Частота : 48,0 КГц
Битовая глубина : 16 бит
Метод сжатия : С потерями
Размер потока : 181 Мбайт (100%)
Общее
Полное имя : F:\Загрузки торрента\Aliens Quadrilogy AVO [pirat.ca]\Alien 2 TC PAL Gorchakov 2.ac3
Формат : AC-3
Формат/Информация : Audio Coding 3
Размер файла : 181 Мбайт
Продолжительность : 2 ч. 11 м.
Режим общего битрейта : Постоянный
Общий поток : 192 Кбит/сек
Аудио
Формат : AC-3
Формат/Информация : Audio Coding 3
Расширение режима : CM (complete main)
Продолжительность : 2 ч. 11 м.
Вид битрейта : Постоянный
Битрейт : 192 Кбит/сек
Каналы : 2 канала
Расположение каналов : Front: L R
Частота : 48,0 КГц
Битовая глубина : 16 бит
Метод сжатия : С потерями
Размер потока : 181 Мбайт (100%)
Общее
Полное имя : F:\Загрузки торрента\Aliens Quadrilogy AVO [pirat.ca]\Alien 2 TC PAL Mihalev.ac3
Формат : AC-3
Формат/Информация : Audio Coding 3
Размер файла : 181 Мбайт
Продолжительность : 2 ч. 11 м.
Режим общего битрейта : Постоянный
Общий поток : 192 Кбит/сек
Аудио
Формат : AC-3
Формат/Информация : Audio Coding 3
Расширение режима : CM (complete main)
Продолжительность : 2 ч. 11 м.
Вид битрейта : Постоянный
Битрейт : 192 Кбит/сек
Каналы : 2 канала
Расположение каналов : Front: L R
Частота : 48,0 КГц
Битовая глубина : 16 бит
Метод сжатия : С потерями
Размер потока : 181 Мбайт (100%)
Общее
Полное имя : F:\Загрузки торрента\Aliens Quadrilogy AVO [pirat.ca]\Alien 2 TC PAL Neizvestny.ac3
Формат : AC-3
Формат/Информация : Audio Coding 3
Размер файла : 181 Мбайт
Продолжительность : 2 ч. 11 м.
Режим общего битрейта : Постоянный
Общий поток : 192 Кбит/сек
Аудио
Формат : AC-3
Формат/Информация : Audio Coding 3
Расширение режима : CM (complete main)
Продолжительность : 2 ч. 11 м.
Вид битрейта : Постоянный
Битрейт : 192 Кбит/сек
Каналы : 2 канала
Расположение каналов : Front: L R
Частота : 48,0 КГц
Битовая глубина : 16 бит
Метод сжатия : С потерями
Размер потока : 181 Мбайт (100%)
Общее
Полное имя : F:\Загрузки торрента\Aliens Quadrilogy AVO [pirat.ca]\Alien 3 DC NTSC Gavrilov.ac3
Формат : AC-3
Формат/Информация : Audio Coding 3
Размер файла : 464 Мбайт
Продолжительность : 2 ч. 24 м.
Режим общего битрейта : Постоянный
Общий поток : 448 Кбит/сек
Аудио
Формат : AC-3
Формат/Информация : Audio Coding 3
Расширение режима : CM (complete main)
Продолжительность : 2 ч. 24 м.
Вид битрейта : Постоянный
Битрейт : 448 Кбит/сек
Каналы : 6 каналов
Расположение каналов : Front: L C R, Side: L R, LFE
Частота : 48,0 КГц
Битовая глубина : 16 бит
Метод сжатия : С потерями
Размер потока : 464 Мбайт (100%)
Общее
Полное имя : F:\Загрузки торрента\Aliens Quadrilogy AVO [pirat.ca]\Alien 3 DC NTSC Jivov.ac3
Формат : AC-3
Формат/Информация : Audio Coding 3
Размер файла : 464 Мбайт
Продолжительность : 2 ч. 24 м.
Режим общего битрейта : Постоянный
Общий поток : 448 Кбит/сек
Аудио
Формат : AC-3
Формат/Информация : Audio Coding 3
Расширение режима : CM (complete main)
Продолжительность : 2 ч. 24 м.
Вид битрейта : Постоянный
Битрейт : 448 Кбит/сек
Каналы : 6 каналов
Расположение каналов : Front: L C R, Side: L R, LFE
Частота : 48,0 КГц
Битовая глубина : 16 бит
Метод сжатия : С потерями
Размер потока : 464 Мбайт (100%)
Общее
Полное имя : F:\Загрузки торрента\Aliens Quadrilogy AVO [pirat.ca]\Alien 3 TC NTSC Gavrilov.ac3
Формат : Wave
Размер файла : 368 Мбайт
Продолжительность : 1 ч. 54 м.
Режим общего битрейта : Постоянный
Общий поток : 448 Кбит/сек
Аудио
Идентификатор : 0
Формат : AC-3
Формат/Информация : Audio Coding 3
Параметр Endianness формата : Little
Идентификатор кодека : 2000
Продолжительность : 1 ч. 54 м.
Вид битрейта : Постоянный
Битрейт : 448 Кбит/сек
Каналы : 6 каналов
Частота : 48,0 КГц
Метод сжатия : С потерями
Размер потока : 368 Мбайт (100%)
Общее
Полное имя : F:\Загрузки торрента\Aliens Quadrilogy AVO [pirat.ca]\Alien 3 TC NTSC Gorchakov.ac3
Формат : Wave
Размер файла : 368 Мбайт
Продолжительность : 1 ч. 54 м.
Режим общего битрейта : Постоянный
Общий поток : 448 Кбит/сек
Аудио
Идентификатор : 0
Формат : AC-3
Формат/Информация : Audio Coding 3
Параметр Endianness формата : Little
Идентификатор кодека : 2000
Продолжительность : 1 ч. 54 м.
Вид битрейта : Постоянный
Битрейт : 448 Кбит/сек
Каналы : 6 каналов
Частота : 48,0 КГц
Метод сжатия : С потерями
Размер потока : 368 Мбайт (100%)
Общее
Полное имя : F:\Загрузки торрента\Aliens Quadrilogy AVO [pirat.ca]\Alien 3 TC NTSC Jivov.ac3
Формат : Wave
Размер файла : 368 Мбайт
Продолжительность : 1 ч. 54 м.
Режим общего битрейта : Постоянный
Общий поток : 448 Кбит/сек
Аудио
Идентификатор : 0
Формат : AC-3
Формат/Информация : Audio Coding 3
Параметр Endianness формата : Little
Идентификатор кодека : 2000
Продолжительность : 1 ч. 54 м.
Вид битрейта : Постоянный
Битрейт : 448 Кбит/сек
Каналы : 6 каналов
Частота : 48,0 КГц
Метод сжатия : С потерями
Размер потока : 368 Мбайт (100%)
Общее
Полное имя : F:\Загрузки торрента\Aliens Quadrilogy AVO [pirat.ca]\Alien 4 DC NTSC Gavrilov.ac3
Формат : AC-3
Формат/Информация : Audio Coding 3
Размер файла : 372 Мбайт
Продолжительность : 1 ч. 56 м.
Режим общего битрейта : Постоянный
Общий поток : 448 Кбит/сек
Аудио
Формат : AC-3
Формат/Информация : Audio Coding 3
Расширение режима : CM (complete main)
Продолжительность : 1 ч. 56 м.
Вид битрейта : Постоянный
Битрейт : 448 Кбит/сек
Каналы : 6 каналов
Расположение каналов : Front: L C R, Side: L R, LFE
Частота : 48,0 КГц
Битовая глубина : 16 бит
Метод сжатия : С потерями
Размер потока : 372 Мбайт (100%)
Общее
Полное имя : F:\Загрузки торрента\Aliens Quadrilogy AVO [pirat.ca]\Alien 4 DC NTSC Jivov.ac3
Формат : AC-3
Формат/Информация : Audio Coding 3
Размер файла : 372 Мбайт
Продолжительность : 1 ч. 56 м.
Режим общего битрейта : Постоянный
Общий поток : 448 Кбит/сек
Аудио
Формат : AC-3
Формат/Информация : Audio Coding 3
Расширение режима : CM (complete main)
Продолжительность : 1 ч. 56 м.
Вид битрейта : Постоянный
Битрейт : 448 Кбит/сек
Каналы : 6 каналов
Расположение каналов : Front: L C R, Side: L R, LFE
Частота : 48,0 КГц
Битовая глубина : 16 бит
Метод сжатия : С потерями
Размер потока : 372 Мбайт (100%)
Общее
Полное имя : F:\Загрузки торрента\Aliens Quadrilogy AVO [pirat.ca]\Alien 4 TC NTSC Gavrilov.ac3
Формат : AC-3
Формат/Информация : Audio Coding 3
Размер файла : 348 Мбайт
Продолжительность : 1 ч. 48 м.
Режим общего битрейта : Постоянный
Общий поток : 448 Кбит/сек
Аудио
Формат : AC-3
Формат/Информация : Audio Coding 3
Расширение режима : CM (complete main)
Продолжительность : 1 ч. 48 м.
Вид битрейта : Постоянный
Битрейт : 448 Кбит/сек
Каналы : 6 каналов
Расположение каналов : Front: L C R, Side: L R, LFE
Частота : 48,0 КГц
Битовая глубина : 16 бит
Метод сжатия : С потерями
Размер потока : 348 Мбайт (100%)
Общее
Полное имя : F:\Загрузки торрента\Aliens Quadrilogy AVO [pirat.ca]\Alien 4 TC NTSC Gorchakov.ac3
Формат : AC-3
Формат/Информация : Audio Coding 3
Размер файла : 348 Мбайт
Продолжительность : 1 ч. 48 м.
Режим общего битрейта : Постоянный
Общий поток : 448 Кбит/сек
Аудио
Формат : AC-3
Формат/Информация : Audio Coding 3
Расширение режима : CM (complete main)
Продолжительность : 1 ч. 48 м.
Вид битрейта : Постоянный
Битрейт : 448 Кбит/сек
Каналы : 6 каналов
Расположение каналов : Front: L C R, Side: L R, LFE
Частота : 48,0 КГц
Битовая глубина : 16 бит
Метод сжатия : С потерями
Размер потока : 348 Мбайт (100%)
Общее
Полное имя : F:\Загрузки торрента\Aliens Quadrilogy AVO [pirat.ca]\Alien 4 TC NTSC Neizvestny.ac3
Формат : AC-3
Формат/Информация : Audio Coding 3
Размер файла : 141 Мбайт
Продолжительность : 1 ч. 42 м.
Режим общего битрейта : Постоянный
Общий поток : 192 Кбит/сек
Аудио
Формат : AC-3
Формат/Информация : Audio Coding 3
Расширение режима : CM (complete main)
Продолжительность : 1 ч. 42 м.
Вид битрейта : Постоянный
Битрейт : 192 Кбит/сек
Каналы : 2 канала
Расположение каналов : Front: L R
Частота : 48,0 КГц
Битовая глубина : 16 бит
Метод сжатия : С потерями
Размер потока : 141 Мбайт (100%)
Общее
Полное имя : F:\Загрузки торрента\Aliens Quadrilogy AVO [pirat.ca]\Alien 4 TC NTSC Vizgunov.ac3
Формат : AC-3
Формат/Информация : Audio Coding 3
Размер файла : 141 Мбайт
Продолжительность : 1 ч. 42 м.
Режим общего битрейта : Постоянный
Общий поток : 192 Кбит/сек
Аудио
Формат : AC-3
Формат/Информация : Audio Coding 3
Расширение режима : CM (complete main)
Продолжительность : 1 ч. 42 м.
Вид битрейта : Постоянный
Битрейт : 192 Кбит/сек
Каналы : 2 канала
Расположение каналов : Front: L R
Частота : 48,0 КГц
Битовая глубина : 16 бит
Метод сжатия : С потерями
Размер потока : 141 Мбайт (100%)
Выражаю благодарность в создании данного релиза:
Jigsaw за Живова к расширкам 1, 3 и 4, а так же эффектный постер
DeASS за Гаврилова к театралке 1, Визгунова и неизвестного к театралке 4
ale_x2008 за Живова к расширке 2
Если у кого-нибудь есть авторская дорога, отсутствующая в данной сборке - буду рада добавить её в комплект
Download / Скачать

Хотите скачать бесплатно? Зарегистрируйтесь на сайте (ссылка на регистрацию). Pirat.ca - самый быстрый торрент трекер в рунете!

Как скачивать  ·   Что такое торрент  ·   Рейтинг и ограничения

zpSaid

125

Пост 28-Авг-2013 11:12 (спустя 8 минут)

[Q] 

А разрешение видео?

_________________
Джавдет трус! Абдула воин!
[Профиль]  [ЛС] 

DeASS

Корсар

6170

Пост 28-Авг-2013 11:15 (спустя 2 минуты)

[Q] 

zpSaid,
тут только дороги.

_________________
у Нас определенно есть хардкор после.
[Профиль]  [ЛС] 

DENON2507

Гроза морей

2484

Пост 28-Авг-2013 11:53 (спустя 38 минут)

[Q] 

ААА...Балдеть...! ax кто будет риповать...? ci
[Профиль]  [ЛС] 

Linnan ®

2662

Пост 28-Авг-2013 11:59 (спустя 6 минут)

[Q] 

DENON2507,
приятного - просмотра тут уже не скажешь, так что прослушивания)
Я точно риповать не буду

_________________

По ночам не раздаю
[Профиль]  [ЛС] 

DENON2507

Гроза морей

2484

Пост 28-Авг-2013 12:29 (спустя 30 минут)

[Q] 

Linnan, Жаль что не будешь... ak у меня исходников на 700 гигов лежит на очереди и рипуется до 15 часов некоторые. на очереди готовых рипов хватает. только оформлять вот время усидчивости требует... dc db + работаю над Качеством картинки последнее время. Попрошу одного человека... ab мож не откажет.....? ac
[Профиль]  [ЛС] 

Linnan ®

2662

Пост 28-Авг-2013 12:46 (спустя 16 минут)

[Q] 

DENON2507,
учитывая, что размер раздачи со всеми дорогами и видео вырастет в два раза минимум - кто поддерживать-то станет? Огородников хватает. А некоторым ещё и в хд/двд только подавай, никак не меньше

_________________

По ночам не раздаю
[Профиль]  [ЛС] 

DENON2507

Гроза морей

2484

Пост 28-Авг-2013 13:08 (спустя 21 минута)

[Q] 

Linnan, Я поддержу. но только avi. отдачу мне прибавили сейчас, скорость тоже... вот что значит судом напугать. bd am Быстренько приехали и прибавили все..! bp co cl
[Профиль]  [ЛС] 

gross1978

7598

Пост 28-Авг-2013 22:06 (спустя 8 часов)

[Q] 

Имею в своей коллекции режиссерские версии чужих (по 10 гиг каждая) в ХД. Могу и сам поддерживать раздачу, могу со временем сделать рипы в ави. Но вот беда, с театралками возиться не хочется.....
Огромное спасибо за раздачу, только сейчас увидел наличие Михалева... огого.....

_________________
Употребляйте правильно слова, и вы избавите мир от половины недоразумений (Р.Декарт).
Если у Вас есть переводы в авторском, которых нет в моих раздачах и желание ими поделиться, пишите, добавим:)
[Профиль]  [ЛС] 

Linnan ®

2662

Пост 29-Авг-2013 11:12 (спустя 13 часов)

[Q] 

DENON2507,
но с видео делать раздачу не собираюсь в любом случае
gross1978,
пожалуйста - приятного знакомства с неизвестными ранее переводами)

_________________

По ночам не раздаю
[Профиль]  [ЛС] 

DENON2507

Гроза морей

2484

Пост 29-Авг-2013 12:54 (спустя 1 час 42 минуты)

[Q] 

414559но с видео делать раздачу не собираюсь в любом случае
Сегодня получил информацию, что BDRip-ы уже готовы оказываются. на следующей неделе будут....!
[Профиль]  [ЛС] 

Jigsaw

Пост 29-Авг-2013 13:02 (спустя 7 минут)

[Q] 

Сегодня получил информацию
Побоюсь спросить от кого bd af
Там были зелоные чЕлОвЕкИ? ab di
 

Linnan ®

2662

Пост 29-Авг-2013 13:08 (спустя 6 минут)

[Q] 

Для самых нетерпеливых - первый рип пошёл Чужой 4: Воскрешение / Alien: Resurrection [Театральная версия / Theatrical cut] (Жан-Пьер Жёне / Jean-Pierre Jeunet) [1997 г., фантастика, боевик, BDRip] AVO (А.Гаврилов, В.Горчаков, С.Визгунов, Неизвестный) + original (Eng) (пост) dc

_________________

По ночам не раздаю
[Профиль]  [ЛС] 

DeASS

Корсар

6170

Пост 29-Авг-2013 13:19 (спустя 10 минут)

[Q] 

Linnan,
Там заодно и свои дороги исправил, облегчил DENON2507 на раз его миссию из космоса. cb
Linnan обновишь потом мои дороги в своем паке.

_________________
у Нас определенно есть хардкор после.
[Профиль]  [ЛС] 
Показать сообщения:    
Ответить на тему

Текущее время: Сегодня 22:31

Часовой пояс: GMT + 4



Вы не можете начинать темы
Вы не можете отвечать на сообщения
Вы не можете редактировать свои сообщения
Вы не можете удалять свои сообщения
Вы не можете голосовать в опросах
Вы не можете прикреплять файлы к сообщениям
Вы не можете скачивать файлы

▼ Вниз