Уважаемый Гость!
Вы можете поддержать проект и зарегистрироваться у наших партнеров - онлайн-стратегия MyLands. При регистрации в игре Вы получите код, который сможете активировать после регистрации на pirat.ca и получить 1000 дублонов.

Ваш код:
26839cd8c6b4848714d1d2f8fd66233fc251c7ab
 
     

Перевод новинок у Карповского

Страницы :   Пред.  1, 2, 3 ... 47, 48, 49 ... 58, 59, 60  След.

Ответить на тему
 
Автор
Сообщение

Wolf_Larsen

Флибустьер

1311

Пост 11-Апр-2013 17:39

[Q] 

Karpovsky, Сам поклонник британского чёрного криминального юмора, но "Дикая штучка" (смотрел в многоголоске) абсолютно не впечатлил, вот это кино раза в три а то и четыре круче будет http://www.kinopoisk.ru/film/91471/
[Профиль]  [ЛС] 

arvideo

Корсар

Пост 11-Апр-2013 23:49 (спустя 6 часов)

[Q] 

354521на апрель я уже предложил : крутые кексы. Очень хочется посмотреть на разговор обкурившегося Броуди с обкурившейся жабой )))).
Нужно на трейлеры давать ссылки, что бы можно было сразу глянуть: http://www.kinopoisk.ru/film/430657/video/
Ну не знаю, боюсь кроме камео Броди в роли снуп-дога, ничего интересного больше может не быть. Но на заметочку Антону нужно взять обязательно.:)
"Дикую штучку" видел кусочками- показалось забавной штучкой.:)
Вот ещё вспомнил про один забавный, смешной(без туалетного юмора) и местами немножко грустный фильм "Троцкий": http://www.kinopoisk.ru/film/426380/
В общем, каким и должно быть хорошее кино: всего по чуть-чуть.

_________________
Судя по форумам, большинство людей не могут жить без того, что бы не наступить на одни и теже грабли. Раз пять, не меньше!
[Профиль]  [ЛС] 

Linnan

2662

Пост 11-Апр-2013 23:54 (спустя 5 минут)

[Q] 

Что-то в этот раз не новинки предлагают bw
Предлагаю это http://www.kinopoisk.ru/film/623225/

_________________

По ночам не раздаю
[Профиль]  [ЛС] 

feldeger

1587

Пост 12-Апр-2013 00:04 (спустя 10 минут)

[Q] 

Предлагаю сию фильму: Пешка / Pawn
http://www.kinopoisk.ru/film/493204/

_________________
Полетел основной комп. Пауза...
[Профиль]  [ЛС] 

Karpovsky

Корсар

Пост 12-Апр-2013 00:41 (спустя 36 минут)

[Q] 

De rouille et d'os/Ржавчина и кость, а также Пешка / Pawn одобряю на голосование. По остальным предложениям чуть позже отпишусь.
[Профиль]  [ЛС] 

xerman13

Морской Волк

Пост 12-Апр-2013 02:35 (спустя 1 час 54 минуты)

[Q] 

Karpovsky Хотел спросить, а предлагать фильмы можно с каким хронометражем?
[Профиль]  [ЛС] 

Karpovsky

Корсар

Пост 12-Апр-2013 05:59 (спустя 3 часа)

[Q] 

354908Karpovsky Хотел спросить, а предлагать фильмы можно с каким хронометражем?
До 120 минут, условно говоря. ch
[Профиль]  [ЛС] 

Linnan

2662

Пост 12-Апр-2013 06:17 (спустя 17 минут)

[Q] 

У Пешки же только на 23 апреля мировая премьера назначена bw

_________________

По ночам не раздаю
[Профиль]  [ЛС] 

feldeger

1587

Пост 12-Апр-2013 07:09 (спустя 52 минуты)

[Q] 

Linnan, мне разведка донесла, что блюровское качество в сети и сабы фирменные ужо есть.

_________________
Полетел основной комп. Пауза...
[Профиль]  [ЛС] 

Linnan

2662

Пост 12-Апр-2013 10:16 (спустя 3 часа)

[Q] 

feldeger,
тогда хорошо, что уплыть успело до премьеры)

_________________

По ночам не раздаю
[Профиль]  [ЛС] 

vadamk

Корсар

Пост 12-Апр-2013 21:30 (спустя 11 часов)

[Q] 

Как предложение не из новинок :1.Пиджак http://www.kinopoisk.ru/film/47382/
2. Астрал http://www.kinopoisk.ru/film/495892/
[Профиль]  [ЛС] 

Ace34

Корсар

59

Пост 13-Апр-2013 13:30 (спустя 16 часов)

[Q] 

так а че, переводим все таки по старому (новинки, в смысле) или уже нет?

_________________
[Профиль]  [ЛС] 

Karpovsky

Корсар

Пост 13-Апр-2013 13:48 (спустя 17 минут)

[Q] 

355661так а че, переводим все таки по старому (новинки, в смысле) или уже нет?
Думаю, ориентироваться нужно на новинки.
[Профиль]  [ЛС] 

Linnan

2662

Пост 14-Апр-2013 13:46 (спустя 23 часа)

[Q] 

Пока что всего две новинки получаются. Добавим
Британская комедия http://www.kinopoisk.ru/film/606716/ Перевод пока что только любительский

_________________

По ночам не раздаю
[Профиль]  [ЛС] 

Karpovsky

Корсар

Пост 14-Апр-2013 13:57 (спустя 10 минут)

[Q] 

356174Пока что всего две новинки получаются. Добавим
Британская комедия http://www.kinopoisk.ru/film/606716/ Перевод пока что только любительский
Кстати, "Пешку" уже скачал (спасибо feldeger), глянул в полглаза, - вполне достойное кино. Психологическая драма с заложниками в кафе, на фоне других ограблений в округе. И качество исходника - рип с блюра. Авторских на него пока нет.
[Профиль]  [ЛС] 

arvideo

Корсар

Пост 15-Апр-2013 18:17 (спустя 1 день 4 часа)

[Q] 

355294Как предложение не из новинок :1.Пиджак http://www.kinopoisk.ru/film/47382/
На тру был с Живовым, если я не путаю.

_________________
Судя по форумам, большинство людей не могут жить без того, что бы не наступить на одни и теже грабли. Раз пять, не меньше!
[Профиль]  [ЛС] 

Linnan

2662

Пост 15-Апр-2013 18:51 (спустя 33 минуты)

[Q] 

Ну так что у нас в этом месяце получается? Как-то не слишком спешат новинки предлагать

_________________

По ночам не раздаю
[Профиль]  [ЛС] 

vadamk

Корсар

Пост 15-Апр-2013 19:37 (спустя 45 минут)

[Q] 

arvideo к сожалению там дубляж и многоголоска.
[Профиль]  [ЛС] 

xerman13

Морской Волк

Пост 16-Апр-2013 01:26 (спустя 5 часов)

[Q] 

Поскольку фильм Фанаты исключили. То я свой голос отдаю фильму Раз, два, три, умри.
[Профиль]  [ЛС] 

pestel

Гроза морей

1180

Пост 16-Апр-2013 06:58 (спустя 5 часов)

[Q] 

Предлагаю Город порока http://www.kinopoisk.ru/film/462787/
General
Complete name : Paperboy.2012(Karpovsky, eng, BDRip).avi
Format : AVI
Format/Info : Audio Video Interleave
Format profile : OpenDML
File size : 2.19 GiB
Duration : 1h 46mn
Overall bit rate : 2 934 Kbps
Writing application : VirtualDubModRus 1.5.10.2 (build 2542/release)
Writing library : VirtualDubMod build 2542/release
Video
ID : 0
Format : MPEG-4 Visual
Format profile : Advanced [email protected]
Format settings, BVOP : Yes
Format settings, QPel : No
Format settings, GMC : No warppoints
Format settings, Matrix : Custom
Codec ID : XVID
Codec ID/Hint : XviD
Duration : 1h 46mn
Bit rate : 2 020 Kbps
Width : 720 pixels
Height : 304 pixels
Display aspect ratio : 2.35:1
Frame rate : 23.976 fps
Color space : YUV
Chroma subsampling : 4:2:0
Bit depth : 8 bits
Scan type : Progressive
Bits/(Pixel*Frame) : 0.385
Stream size : 1.51 GiB (69%)
Writing library : XviD 65
Audio #1
ID : 1
Format : AC-3
Format/Info : Audio Coding 3
Mode extension : CM (complete main)
Codec ID : 2000
Duration : 1h 46mn
Bit rate mode : Constant
Bit rate : 448 Kbps
Channel(s) : 6 channels
Channel positions : Front: L C R, Side: L R, LFE
Sampling rate : 48.0 KHz
Bit depth : 16 bits
Stream size : 342 MiB (15%)
Alignment : Split accross interleaves
Interleave, duration : 42 ms (1.00 video frame)
Interleave, preload duration : 500 ms
Audio #2
ID : 2
Format : AC-3
Format/Info : Audio Coding 3
Mode extension : CM (complete main)
Codec ID : 2000
Duration : 1h 46mn
Bit rate mode : Constant
Bit rate : 448 Kbps
Channel(s) : 6 channels
Channel positions : Front: L C R, Side: L R, LFE
Sampling rate : 48.0 KHz
Bit depth : 16 bits
Stream size : 342 MiB (15%)
Alignment : Split accross interleaves
Interleave, duration : 42 ms (1.00 video frame)
Interleave, preload duration : 500 ms
За видео спасибо silver
Всем приятного просмотра! az
[Профиль]  [ЛС] 

arvideo

Корсар

Пост 16-Апр-2013 23:52 (спустя 16 часов)

[Q] 

357098
General
Complete name : Paperboy.2012(Karpovsky, eng, BDRip).avi
Format : AVI
Format/Info : Audio Video Interleave
Format profile : OpenDML
File size : 2.19 GiB
Duration : 1h 46mn
Overall bit rate : 2 934 Kbps
Writing application : VirtualDubModRus 1.5.10.2 (build 2542/release)
Writing library : VirtualDubMod build 2542/release
Video
ID : 0
Format : MPEG-4 Visual
Format profile : Advanced [email protected]
Format settings, BVOP : Yes
Format settings, QPel : No
Format settings, GMC : No warppoints
Format settings, Matrix : Custom
Codec ID : XVID
Codec ID/Hint : XviD
Duration : 1h 46mn
Bit rate : 2 020 Kbps
Width : 720 pixels
Height : 304 pixels
Display aspect ratio : 2.35:1
Frame rate : 23.976 fps
Color space : YUV
Chroma subsampling : 4:2:0
Bit depth : 8 bits
Scan type : Progressive
Bits/(Pixel*Frame) : 0.385
Stream size : 1.51 GiB (69%)
Writing library : XviD 65
Audio #1
ID : 1
Format : AC-3
Format/Info : Audio Coding 3
Mode extension : CM (complete main)
Codec ID : 2000
Duration : 1h 46mn
Bit rate mode : Constant
Bit rate : 448 Kbps
Channel(s) : 6 channels
Channel positions : Front: L C R, Side: L R, LFE
Sampling rate : 48.0 KHz
Bit depth : 16 bits
Stream size : 342 MiB (15%)
Alignment : Split accross interleaves
Interleave, duration : 42 ms (1.00 video frame)
Interleave, preload duration : 500 ms
Audio #2
ID : 2
Format : AC-3
Format/Info : Audio Coding 3
Mode extension : CM (complete main)
Codec ID : 2000
Duration : 1h 46mn
Bit rate mode : Constant
Bit rate : 448 Kbps
Channel(s) : 6 channels
Channel positions : Front: L C R, Side: L R, LFE
Sampling rate : 48.0 KHz
Bit depth : 16 bits
Stream size : 342 MiB (15%)
Alignment : Split accross interleaves
Interleave, duration : 42 ms (1.00 video frame)
Interleave, preload duration : 500 ms
За видео спасибо silver
Всем приятного просмотра! az
А можно и мне, а то чувствую, как и остальные фильмы, так и не посмотрю.:)

_________________
Судя по форумам, большинство людей не могут жить без того, что бы не наступить на одни и теже грабли. Раз пять, не меньше!
[Профиль]  [ЛС] 

pestel

Гроза морей

1180

Пост 17-Апр-2013 07:06 (спустя 7 часов)

[Q] 

arvideo, вообще не вопрос )) Конечно
[Профиль]  [ЛС] 

_48ronin_ ®

Корсар

534

Пост 17-Апр-2013 21:05 (спустя 13 часов)

[Q] 

Всем привет!
В этот заход у нас будут такие бонусы:
1. Елизавета (Elizabeth 1998) - Живов http://www.kinopoisk.ru/film/5560/
2. Кокон 2: Возвращение (Cocoon: The Return 1988) - Либергал http://www.kinopoisk.ru/film/18468/
3. Миротворец (Peacemaker 1997) - Живов http://www.kinopoisk.ru/film/4121/
-----------------------------------------------------------------------------------------------------
кроме того, поступило предложение перевести у Антона в рамках клуба такое кино:
[Профиль]  [ЛС] 

Linnan

2662

Пост 17-Апр-2013 21:15 (спустя 9 минут)

[Q] 

Миротворец (Peacemaker 1997)
жаль, что не другой
Так сколько уже предложений поступило? Может быть пора определяться и голосовать, а то только предлагаем и предлагаем?

_________________

По ночам не раздаю
[Профиль]  [ЛС] 

Karpovsky

Корсар

Пост 17-Апр-2013 21:59 (спустя 44 минуты)

[Q] 

Из всего, что было предложено, оставил для голосования:
Ржавчина и кость / De rouille et d'os (2012) http://www.kinopoisk.ru/film/623225/
Пешка / Pawn (2013) http://www.kinopoisk.ru/film/493204/
Раз! Два! Три! Умри! / Sightseers (2012) http://www.kinopoisk.ru/film/606716/
На мой взгляд, это - лучшее. Так что голосовалка получается короткой. Но от этого результат будет даже лучше.
[Профиль]  [ЛС] 

_48ronin_ ®

Корсар

534

Пост 17-Апр-2013 22:26 (спустя 26 минут)

[Q] 

тогда без вариантов - голосую за "Пешку" и "Раз, два, три"
[Профиль]  [ЛС] 

Linnan

2662

Пост 17-Апр-2013 22:36 (спустя 10 минут)

[Q] 

Ржавчина и кость и Пешка

_________________

По ночам не раздаю
[Профиль]  [ЛС] 

SavineX

76

Пост 17-Апр-2013 22:50 (спустя 14 минут)

[Q] 

тоже за "Пешку" и "Раз, два, три"
[Профиль]  [ЛС] 

Ace34

Корсар

59

Пост 17-Апр-2013 23:54 (спустя 1 час 4 минуты)

[Q] 

т.е Любовь по-взрослому не участвует?
очень жаль... все-таки Джуд Аппатоу...

_________________
[Профиль]  [ЛС] 

vadamk

Корсар

Пост 17-Апр-2013 23:57 (спустя 2 минуты)

[Q] 

"Пешка" и "Раз,два,три"
[Профиль]  [ЛС] 
Показать сообщения:    
Ответить на тему

Текущее время: Сегодня 08:13

Часовой пояс: GMT + 4



Вы не можете начинать темы
Вы не можете отвечать на сообщения
Вы не можете редактировать свои сообщения
Вы не можете удалять свои сообщения
Вы не можете голосовать в опросах
Вы не можете прикреплять файлы к сообщениям
Вы не можете скачивать файлы

▼ Вниз