Уважаемый Гость!
Вы можете поддержать проект и зарегистрироваться у наших партнеров - онлайн-стратегия MyLands. При регистрации в игре Вы получите код, который сможете активировать после регистрации на pirat.ca и получить 1000 дублонов.

Ваш код:
42dfaac977a7ef29e5167536f5b22936dba18477
 
     

Перевод новинок у Карповского

Страницы :   Пред.  1, 2, 3 ... 51, 52, 53 ... 58, 59, 60  След.

Ответить на тему
 
Автор
Сообщение

Ace34

Корсар

59

Пост 16-Май-2013 20:35

[Q] 

370257хотя в тех же Дневниках баскетболиста он был хорош
согласен. недавно как раз посмотрел. не ожидал от молодого ДиКаприо такой игры...

_________________
[Профиль]  [ЛС] 

Wolf_Larsen

Флибустьер

1311

Пост 16-Май-2013 20:43 (спустя 7 минут)

[Q] 

ZohanDvir, А по мне лучший фильм с Лео это "Жизнь этого парня"
[Профиль]  [ЛС] 

Linnan

2662

Пост 16-Май-2013 20:52 (спустя 9 минут)

[Q] 

ZohanDvir,
Ace34,
Wolf_Larsen,
это вы специально так дикаприо расхваливаете? be

_________________

По ночам не раздаю
[Профиль]  [ЛС] 

_48ronin_ ®

Корсар

534

Пост 16-Май-2013 21:02 (спустя 9 минут)

[Q] 

нееее, лучшая роль Лео вот:
[Профиль]  [ЛС] 

pestel

Гроза морей

1180

Пост 17-Май-2013 19:12 (спустя 22 часа)

[Q] 

General
Complete name : Cocoon2(Return).1988(Libergal, Jivov)@.avi
Format : AVI
Format/Info : Audio Video Interleave
Format profile : OpenDML
File size : 2.52 GiB
Duration : 1h 56mn
Overall bit rate : 3 094 Kbps
Writing application : VirtualDubModRus 1.5.10.2 (build 2542/release)
Writing library : VirtualDubMod build 2542/release
Video
ID : 0
Format : MPEG-4 Visual
Format profile : Advanced [email protected]
Format settings, BVOP : Yes
Format settings, QPel : No
Format settings, GMC : No warppoints
Format settings, Matrix : Custom
Codec ID : XVID
Codec ID/Hint : XviD
Duration : 1h 56mn
Bit rate : 1 728 Kbps
Width : 720 pixels
Height : 384 pixels
Display aspect ratio : 1.875
Frame rate : 23.976 fps
Color space : YUV
Chroma subsampling : 4:2:0
Bit depth : 8 bits
Scan type : Progressive
Bits/(Pixel*Frame) : 0.261
Stream size : 1.40 GiB (56%)
Writing library : XviD 65
Audio #1
ID : 1
Format : AC-3
Format/Info : Audio Coding 3
Mode extension : CM (complete main)
Codec ID : 2000
Duration : 1h 56mn
Bit rate mode : Constant
Bit rate : 448 Kbps
Channel(s) : 6 channels
Channel positions : Front: L C R, Side: L R, LFE
Sampling rate : 48.0 KHz
Bit depth : 16 bits
Stream size : 373 MiB (14%)
Alignment : Split accross interleaves
Interleave, duration : 42 ms (1.00 video frame)
Interleave, preload duration : 500 ms
Audio #2
ID : 2
Format : AC-3
Format/Info : Audio Coding 3
Mode extension : CM (complete main)
Codec ID : 2000
Duration : 1h 56mn
Bit rate mode : Constant
Bit rate : 448 Kbps
Channel(s) : 6 channels
Channel positions : Front: L C R, Side: L R, LFE
Sampling rate : 48.0 KHz
Bit depth : 16 bits
Stream size : 373 MiB (14%)
Alignment : Split accross interleaves
Interleave, duration : 42 ms (1.00 video frame)
Interleave, preload duration : 500 ms
Audio #3
ID : 3
Format : AC-3
Format/Info : Audio Coding 3
Mode extension : CM (complete main)
Codec ID : 2000
Duration : 1h 56mn
Bit rate mode : Constant
Bit rate : 448 Kbps
Channel(s) : 6 channels
Channel positions : Front: L C R, Side: L R, LFE
Sampling rate : 48.0 KHz
Bit depth : 16 bits
Stream size : 373 MiB (14%)
Alignment : Split accross interleaves
Interleave, duration : 42 ms (1.00 video frame)
Interleave, preload duration : 500 ms
Третья дорога аглицкая. Всем приятного просмотра! az
[Профиль]  [ЛС] 

Wolf_Larsen

Флибустьер

1311

Пост 17-Май-2013 19:46 (спустя 34 минуты)

[Q] 

pestel, С возвращением!
[Профиль]  [ЛС] 

pestel

Гроза морей

1180

Пост 17-Май-2013 21:57 (спустя 2 часа 10 минут)

[Q] 

Wolf_Larsen, я и не исчезал ad
[Профиль]  [ЛС] 

Ace34

Корсар

59

Пост 18-Май-2013 02:21 (спустя 4 часа)

[Q] 

370577это вы специально так дикаприо расхваливаете?
да нет)

_________________
[Профиль]  [ЛС] 

feldeger

1587

Пост 18-Май-2013 10:35 (спустя 8 часов)

[Q] 

Ну и фиг с ним, с Каприо...
Вот симпатичный боевик: Добро пожаловать в капкан / Welcome to the Punch - http://www.kinopoisk.ru/film/572772/
Смотрел в Дольском, но очень хочется у Антона перевести. Такие штучки у него классно получаются.
Кстати Реальные парни (Карповский) выложил на тру, кому интнресно...

_________________
Полетел основной комп. Пауза...
[Профиль]  [ЛС] 

_shurik_

Корсар

Пост 21-Май-2013 07:55 (спустя 2 дня 21 час)

[Q] 

Стукач / Snitch 2013
http://www.kinopoisk.ru/film/586297/video/
категорически не понимаю, как сделать ссылку на ролик ag
[Профиль]  [ЛС] 

Ace34

Корсар

59

Пост 21-Май-2013 18:56 (спустя 11 часов)

[Q] 

_shurik_, с ютуба только вроде

_________________
[Профиль]  [ЛС] 

arvideo

Корсар

Пост 22-Май-2013 01:02 (спустя 6 часов)

[Q] 

За май в 18-52 отправлено 300. Толи сегодня, толи вчера.:))) В общем, 21 числа это было.:)

_________________
Судя по форумам, большинство людей не могут жить без того, что бы не наступить на одни и теже грабли. Раз пять, не меньше!
[Профиль]  [ЛС] 

Karpovsky

Корсар

Пост 22-Май-2013 01:27 (спустя 25 минут)

[Q] 

arvideo, пришло, спасибо-)
[Профиль]  [ЛС] 

Karpovsky

Корсар

Пост 23-Май-2013 14:06 (спустя 1 день 12 часов)

[Q] 

Чего-то всё встало стоймя? 6 человек на новый период? и это все? Или в майские хорошо погуляли, или лавочка умирает второй раз?-)) Я просто балдею: 5-6 авторских переводов за каждый период, включая два свежих перевода, и такая низкая популярность проекта. Даже странно. ch
Самое интересное, что половина всех ранее состоявших в клубе людей, продолжают заказывать переводы для личного пользования, либо на 2-3 человек, и пишут через ЛС достаточно регулярно, т.е. я перегружен на данный момент, а значит дело не во мне лично и не в глобальном финансовом кризисе-) а в чем тогда?
Наверное, причина в том, что не хочется переводить то, что самому лично не интересно. Тогда речь о разнице вкусов участников, - видимо, это и есть главная причина.
[Профиль]  [ЛС] 

Linnan

2662

Пост 23-Май-2013 16:17 (спустя 2 часа 11 минут)

[Q] 

373463Чего-то всё встало стоймя? 6 человек на новый период? и это все? Или в майские хорошо погуляли, или лавочка умирает второй раз?-)) Я просто балдею: 5-6 авторских переводов за каждый период, включая два свежих перевода, и такая низкая популярность проекта. Даже странно. ch
Самое интересное, что половина всех ранее состоявших в клубе людей, продолжают заказывать переводы для личного пользования, либо на 2-3 человек, и пишут через ЛС достаточно регулярно, т.е. я перегружен на данный момент, а значит дело не во мне лично и не в глобальном финансовом кризисе-) а в чем тогда?
Наверное, причина в том, что не хочется переводить то, что самому лично не интересно. Тогда речь о разнице вкусов участников, - видимо, это и есть главная причина.
может быть, что и в этом - ведь говорили недавно о том, что предлагают на перевод то, что в итоге оказывается никому не интересно. Хотя очень странно - что мешает предложить что-то интересное для себя - может ещё кого заинтересует, не только предложившего? Меня лично в этом месяце из чужих предложений два заинтересовали)

_________________

По ночам не раздаю
[Профиль]  [ЛС] 

feldeger

1587

Пост 23-Май-2013 20:49 (спустя 4 часа)

[Q] 

Это нормально, учитывая, что все в мире развивается по синусоиде.
Сейчас нижняя точка...

_________________
Полетел основной комп. Пауза...
[Профиль]  [ЛС] 

Karpovsky

Корсар

Пост 23-Май-2013 21:53 (спустя 1 час 3 минуты)

[Q] 

373678Это нормально, учитывая, что все в мире развивается по синусоиде.
Сейчас нижняя точка...
Юр, а я думал, что всё развивается по параболе. Это на самом деле глубоко философский вопрос-) Для затравки - там где синусоида, там понятно более - менее ожидание, а там где парабола, - там впереди Надежда. Короче, нам пора выпить-))
[Профиль]  [ЛС] 

Ace34

Корсар

59

Пост 24-Май-2013 01:22 (спустя 3 часа)

[Q] 

3734636 человек на новый период?
как минимум - семь)
я тоже в деле, но как обычно скинусь позже, как деньга появится)

_________________
[Профиль]  [ЛС] 

creata

Морской Волк

Пост 24-Май-2013 20:54 (спустя 19 часов)

[Q] 

Я восьмой. Только что перевел на счет Антона 300 руб. Я уже переводил в мае 9.05.13 деньги. Но похоже, что я не делал этого в апреле. Хотя я уже не помню точно. Проверьте.
[Профиль]  [ЛС] 

_48ronin_ ®

Корсар

534

Пост 24-Май-2013 20:57 (спустя 2 минуты)

[Q] 

creata, ты переводил деньги и в апреле и в мае, что и зафиксировано на первой странице.
[Профиль]  [ЛС] 

Karpovsky

Корсар

Пост 25-Май-2013 03:01 (спустя 6 часов)

[Q] 

creata, пришло, спс!
[Профиль]  [ЛС] 

creata

Морской Волк

Пост 25-Май-2013 19:34 (спустя 16 часов)

[Q] 

Значит это будет взнос за июнь.
[Профиль]  [ЛС] 

pestel

Гроза морей

1180

Пост 27-Май-2013 21:57 (спустя 2 дня 2 часа)

[Q] 

General
Complete name : Le Jaguar.1996(Vizgunov, fra, DVDRip)@.avi
Format : AVI
Format/Info : Audio Video Interleave
Format profile : OpenDML
File size : 2.07 GiB
Duration : 1h 35mn
Overall bit rate : 3 091 Kbps
Writing application : VirtualDubModRus 1.5.10.2 (build 2542/release)
Writing library : VirtualDubMod build 2542/release
Video
ID : 0
Format : MPEG-4 Visual
Format profile : Advanced [email protected]
Format settings, BVOP : Yes
Format settings, QPel : No
Format settings, GMC : No warppoints
Format settings, Matrix : Custom
Codec ID : XVID
Codec ID/Hint : XviD
Duration : 1h 35mn
Bit rate : 2 176 Kbps
Width : 720 pixels
Height : 400 pixels
Display aspect ratio : 16:9
Frame rate : 25.000 fps
Color space : YUV
Chroma subsampling : 4:2:0
Bit depth : 8 bits
Scan type : Progressive
Bits/(Pixel*Frame) : 0.302
Stream size : 1.46 GiB (70%)
Writing library : XviD 65
Audio #1
ID : 1
Format : AC-3
Format/Info : Audio Coding 3
Mode extension : CM (complete main)
Codec ID : 2000
Duration : 1h 35mn
Bit rate mode : Constant
Bit rate : 448 Kbps
Channel(s) : 6 channels
Channel positions : Front: L C R, Side: L R, LFE
Sampling rate : 48.0 KHz
Bit depth : 16 bits
Stream size : 307 MiB (14%)
Alignment : Split accross interleaves
Interleave, duration : 40 ms (1.00 video frame)
Interleave, preload duration : 500 ms
Audio #2
ID : 2
Format : AC-3
Format/Info : Audio Coding 3
Mode extension : CM (complete main)
Codec ID : 2000
Duration : 1h 35mn
Bit rate mode : Constant
Bit rate : 448 Kbps
Channel(s) : 6 channels
Channel positions : Front: L C R, Side: L R, LFE
Sampling rate : 48.0 KHz
Bit depth : 16 bits
Stream size : 307 MiB (14%)
Alignment : Split accross interleaves
Interleave, duration : 40 ms (1.00 video frame)
Interleave, preload duration : 500 ms
General
Complete name : For Love or Mone.1993(Gorchakov, eng, DVDRip)@.avi
Format : AVI
Format/Info : Audio Video Interleave
Format profile : OpenDML
File size : 2.12 GiB
Duration : 1h 35mn
Overall bit rate : 3 190 Kbps
Writing application : VirtualDubModRus 1.5.10.2 (build 2542/release)
Writing library : VirtualDubMod build 2542/release
Video
ID : 0
Format : MPEG-4 Visual
Format profile : Advanced [email protected]
Format settings, BVOP : Yes
Format settings, QPel : No
Format settings, GMC : No warppoints
Format settings, Matrix : Custom
Codec ID : XVID
Codec ID/Hint : XviD
Duration : 1h 35mn
Bit rate : 1 956 Kbps
Width : 720 pixels
Height : 384 pixels
Display aspect ratio : 1.875
Frame rate : 23.976 fps
Color space : YUV
Chroma subsampling : 4:2:0
Bit depth : 8 bits
Scan type : Progressive
Bits/(Pixel*Frame) : 0.295
Stream size : 1.30 GiB (61%)
Writing library : XviD 65
Audio #1
ID : 1
Format : PCM
Format settings, Endianness : Little
Format settings, Sign : Signed
Codec ID : 1
Codec ID/Hint : Microsoft
Duration : 1h 35mn
Bit rate mode : Constant
Bit rate : 768 Kbps
Channel(s) : 1 channel
Sampling rate : 48.0 KHz
Bit depth : 16 bits
Stream size : 523 MiB (24%)
Interleave, duration : 42 ms (1.00 video frame)
Interleave, preload duration : 500 ms
Audio #2
ID : 2
Format : AC-3
Format/Info : Audio Coding 3
Mode extension : CM (complete main)
Codec ID : 2000
Duration : 1h 35mn
Bit rate mode : Constant
Bit rate : 448 Kbps
Channel(s) : 6 channels
Channel positions : Front: L C R, Side: L R, LFE
Sampling rate : 48.0 KHz
Bit depth : 16 bits
Stream size : 305 MiB (14%)
Alignment : Split accross interleaves
Interleave, duration : 42 ms (1.00 video frame)
Interleave, preload duration : 500 ms
Всем приятного просмотра!
[Профиль]  [ЛС] 

kro44i

Штурман

Пост 27-Май-2013 22:05 (спустя 7 минут)

[Q] 

pestel, проверь, если в исходящих письмо появилось, то все нормально, забей на это сообщение, мне ты 2 раза прислал. У меня тоже такое было, выше писал, но ошибка была другая.
У кого проблема с распаковкой Sightseers, вот 5 архив, я его перезалил и проверил (переименуйте его в 5, надо 0 убрать из названия):
http://www.sendspace.com/file/19fmiw
[Профиль]  [ЛС] 

pestel

Гроза морей

1180

Пост 27-Май-2013 22:12 (спустя 7 минут)

[Q] 

kro44i, ага - уже посмотрел, вроде всем ушло :)
Просто напрягают всякие ошибки, и так не сахар рассылкой заниматься,
а тут еще всякие пугающие надписи :)
[Профиль]  [ЛС] 

zeleniydzhan

Морской Волк

80

Пост 29-Май-2013 19:09 (спустя 1 день 20 часов)

[Q] 

Взнос перевёл .
Предлагаю первым фильмом на перевод пустить "тело", поскольку Антон его одобрил .
По поводу второго, на е180 хвалили этот фильм http://www.kinopoisk.ru/film/502256/ , предлагаю его рассмотреть .
[Профиль]  [ЛС] 

Linnan

2662

Пост 29-Май-2013 19:44 (спустя 35 минут)

[Q] 

Может быть действительно пора объявлять голосование?

_________________

По ночам не раздаю
[Профиль]  [ЛС] 

Karpovsky

Корсар

Пост 29-Май-2013 20:04 (спустя 20 минут)

[Q] 

376132Взнос перевёл .
Предлагаю первым фильмом на перевод пустить "тело", поскольку Антон его одобрил .
По поводу второго, на е180 хвалили этот фильм http://www.kinopoisk.ru/film/502256/ , предлагаю его рассмотреть .
Взнос получен! спасибо за участие!
Означенный фильм вполне можно допустить к голосованию.
[Профиль]  [ЛС] 

arvideo

Корсар

Пост 30-Май-2013 00:25 (спустя 4 часа)

[Q] 

Ох, боюсь окажется "Тело" фигнёй.:))) Но зато будет испанский фильм, чего у нас ещё не было.:)))
"Суши гёрл" мне тоже хвалили, частным порядком. Так что если противников нет, то можно и поставить в очередь.

_________________
Судя по форумам, большинство людей не могут жить без того, что бы не наступить на одни и теже грабли. Раз пять, не меньше!
[Профиль]  [ЛС] 

vadamk

Корсар

Пост 30-Май-2013 00:32 (спустя 6 минут)

[Q] 

Отсмотрел "Экскурсанты",до этого "Пешка"-спасибо предложившим фильмы на перевод,спасибо Антону за перевод,пираты если Вы не в клубе,то Вы такие фильмы пропускаете,эх.
[Профиль]  [ЛС] 
Показать сообщения:    
Ответить на тему

Текущее время: Сегодня 22:49

Часовой пояс: GMT + 4



Вы не можете начинать темы
Вы не можете отвечать на сообщения
Вы не можете редактировать свои сообщения
Вы не можете удалять свои сообщения
Вы не можете голосовать в опросах
Вы не можете прикреплять файлы к сообщениям
Вы не можете скачивать файлы

▼ Вниз