Уважаемый Гость!
Вы можете поддержать проект и зарегистрироваться у наших партнеров - онлайн-стратегия MyLands. При регистрации в игре Вы получите код, который сможете активировать после регистрации на pirat.ca и получить 1000 дублонов.

Ваш код:
42dfaac977a7ef29e5167536f5b22936dba18477
 
     

Перевод новинок у Карповского

Страницы :   Пред.  1, 2, 3 ... 57, 58, 59, 60  След.

Ответить на тему
 
Автор
Сообщение

_shurik_

Корсар

Пост 10-Окт-2013 12:06

[Q] 

закинул 300 рублёв на ВМ.
[Профиль]  [ЛС] 

Karpovsky

Корсар

Пост 10-Окт-2013 13:22 (спустя 1 час 16 минут)

[Q] 

433821закинул 300 рублёв на ВМ.
Пришло, спасибо-)
[Профиль]  [ЛС] 

pestel

Гроза морей

1180

Пост 10-Окт-2013 21:02 (спустя 7 часов)

[Q] 

General
Complete name : The Adventures of Tintin.2011(Serbin, eng, BDRip)@.avi
Format : AVI
Format/Info : Audio Video Interleave
File size : 1.92 GiB
Duration : 1h 46mn
Overall bit rate : 2 566 Kbps
Writing application : VirtualDubModRus 1.5.10.2 (build 2542/release)
Writing library : VirtualDubMod build 2542/release
Video
ID : 0
Format : MPEG-4 Visual
Format profile : Advanced [email protected]
Format settings, BVOP : Yes
Format settings, QPel : No
Format settings, GMC : No warppoints
Format settings, Matrix : Custom
Codec ID : XVID
Codec ID/Hint : XviD
Duration : 1h 46mn
Bit rate : 1 656 Kbps
Width : 720 pixels
Height : 304 pixels
Display aspect ratio : 2.35:1
Frame rate : 23.976 fps
Color space : YUV
Chroma subsampling : 4:2:0
Bit depth : 8 bits
Scan type : Progressive
Bits/(Pixel*Frame) : 0.316
Stream size : 1.24 GiB (65%)
Writing library : XviD 65
Audio #1
ID : 1
Format : AC-3
Format/Info : Audio Coding 3
Mode extension : CM (complete main)
Codec ID : 2000
Duration : 1h 46mn
Bit rate mode : Constant
Bit rate : 448 Kbps
Channel(s) : 6 channels
Channel positions : Front: L C R, Side: L R, LFE
Sampling rate : 48.0 KHz
Bit depth : 16 bits
Stream size : 342 MiB (17%)
Alignment : Split accross interleaves
Interleave, duration : 42 ms (1.00 video frame)
Interleave, preload duration : 500 ms
Audio #2
ID : 2
Format : AC-3
Format/Info : Audio Coding 3
Mode extension : CM (complete main)
Codec ID : 2000
Duration : 1h 46mn
Bit rate mode : Constant
Bit rate : 448 Kbps
Channel(s) : 6 channels
Channel positions : Front: L C R, Side: L R, LFE
Sampling rate : 48.0 KHz
Bit depth : 16 bits
Stream size : 342 MiB (17%)
Alignment : Split accross interleaves
Interleave, duration : 42 ms (1.00 video frame)
Interleave, preload duration : 500 ms
Всем приятного просмотра! dc az
[Профиль]  [ЛС] 

xerman13

Морской Волк

Пост 15-Окт-2013 04:43 (спустя 4 дня)

[Q] 

433994
General
Complete name : The Adventures of Tintin.2011(Serbin, eng, BDRip)@.avi
Format : AVI
Format/Info : Audio Video Interleave
File size : 1.92 GiB
Duration : 1h 46mn
Overall bit rate : 2 566 Kbps
Writing application : VirtualDubModRus 1.5.10.2 (build 2542/release)
Writing library : VirtualDubMod build 2542/release
Video
ID : 0
Format : MPEG-4 Visual
Format profile : Advanced [email protected]
Format settings, BVOP : Yes
Format settings, QPel : No
Format settings, GMC : No warppoints
Format settings, Matrix : Custom
Codec ID : XVID
Codec ID/Hint : XviD
Duration : 1h 46mn
Bit rate : 1 656 Kbps
Width : 720 pixels
Height : 304 pixels
Display aspect ratio : 2.35:1
Frame rate : 23.976 fps
Color space : YUV
Chroma subsampling : 4:2:0
Bit depth : 8 bits
Scan type : Progressive
Bits/(Pixel*Frame) : 0.316
Stream size : 1.24 GiB (65%)
Writing library : XviD 65
Audio #1
ID : 1
Format : AC-3
Format/Info : Audio Coding 3
Mode extension : CM (complete main)
Codec ID : 2000
Duration : 1h 46mn
Bit rate mode : Constant
Bit rate : 448 Kbps
Channel(s) : 6 channels
Channel positions : Front: L C R, Side: L R, LFE
Sampling rate : 48.0 KHz
Bit depth : 16 bits
Stream size : 342 MiB (17%)
Alignment : Split accross interleaves
Interleave, duration : 42 ms (1.00 video frame)
Interleave, preload duration : 500 ms
Audio #2
ID : 2
Format : AC-3
Format/Info : Audio Coding 3
Mode extension : CM (complete main)
Codec ID : 2000
Duration : 1h 46mn
Bit rate mode : Constant
Bit rate : 448 Kbps
Channel(s) : 6 channels
Channel positions : Front: L C R, Side: L R, LFE
Sampling rate : 48.0 KHz
Bit depth : 16 bits
Stream size : 342 MiB (17%)
Alignment : Split accross interleaves
Interleave, duration : 42 ms (1.00 video frame)
Interleave, preload duration : 500 ms
Всем приятного просмотра! dc az
Спасибо! У меня есть ещё Дасевич, если нужно могу выслать для сборки.
[Профиль]  [ЛС] 

anton966

10380

Пост 15-Окт-2013 08:06 (спустя 3 часа)

[Q] 

xerman13,
Саня, а тебе самому интересен этот переговорщик?

_________________
" ...потому что во многой мудрости много печали; и кто умножает познания, умножает скорбь" ( Еккл 1:17,18)
[Профиль]  [ЛС] 

pestel

Гроза морей

1180

Пост 15-Окт-2013 19:26 (спустя 11 часов)

[Q] 

xerman13, да не за что!
А на вопрос, я думаю, Антон ответил )), хотя - спасибо за предложение az
[Профиль]  [ЛС] 

Джосс

Корсар

429

Пост 15-Окт-2013 23:01 (спустя 3 часа)

[Q] 

433100Бонусы
а можно их получить?

_________________
Я мненью вашему вращенье предавал, и осью был мой детородный орган.
[Профиль]  [ЛС] 

Wolf_Larsen

Флибустьер

1311

Пост 16-Окт-2013 06:17 (спустя 7 часов)

[Q] 

436147
433100Бонусы
а можно их получить?
Присоединяюсь к вопросу, если Джосс имел в виду голос
[Профиль]  [ЛС] 

_shurik_

Корсар

Пост 16-Окт-2013 08:58 (спустя 2 часа 40 минут)

[Q] 

Присоединяюсь к вопросу, если Джосс имел в виду голос
Что-то как-то тихо по предложениям на перевод...
[Профиль]  [ЛС] 

ZombX

Шкипер

Пост 16-Окт-2013 10:41 (спустя 1 час 42 минуты)

[Q] 

Да, по поводу голосов также присоединюсь.
С ними-то зачем сборку обязательно ждать? Все равно ведь, у Стахана они уже есть :)
[Профиль]  [ЛС] 

_48ronin_ ®

Корсар

534

Пост 16-Окт-2013 16:40 (спустя 5 часов)

[Q] 

436309
С ними-то зачем сборку обязательно ждать?
А кто ждёт? Бонусные голоса рассылаются по требованию, кому нужны бонусы - озвучивают мне в лс свою позицию, какие конкретно голоса понадобились.
[Профиль]  [ЛС] 

ZombX

Шкипер

Пост 16-Окт-2013 23:13 (спустя 6 часов)

[Q] 

Окда, понял и отписался :)
[Профиль]  [ЛС] 

Джосс

Корсар

429

Пост 17-Окт-2013 14:47 (спустя 15 часов)

[Q] 

оплачено за текущий месяц.
с нетерпением жду также потерянный уикэнд)))

_________________
Я мненью вашему вращенье предавал, и осью был мой детородный орган.
[Профиль]  [ЛС] 

zeleniydzhan

Морской Волк

80

Пост 18-Окт-2013 11:38 (спустя 20 часов)

[Q] 

Судная ночь / The Purge (Джеймс ДеМонако / James DeMonaco) [2013 г., триллер, ужасы, Blu-Ray Remux, 1080p] AVO (Антон Карповский) + Dub + original (Eng)
Спасибо Антону за перевод ! Мне фильм понравился ab
[Профиль]  [ЛС] 

pestel

Гроза морей

1180

Пост 18-Окт-2013 21:02 (спустя 9 часов)

[Q] 

General
Complete name : Showtime.2002(Volodarsky, Rukin, eng, WEB-DLRip)@.avi
Format : AVI
Format/Info : Audio Video Interleave
Format profile : OpenDML
File size : 2.14 GiB
Duration : 1h 35mn
Overall bit rate : 3 215 Kbps
Writing application : VirtualDubModRus 1.5.10.2 (build 2542/release)
Writing library : VirtualDubMod build 2542/release
Video
ID : 0
Format : MPEG-4 Visual
Format profile : Advanced [email protected]
Format settings, BVOP : Yes
Format settings, QPel : No
Format settings, GMC : No warppoints
Format settings, Matrix : Custom
Codec ID : XVID
Codec ID/Hint : XviD
Duration : 1h 35mn
Bit rate : 1 847 Kbps
Width : 720 pixels
Height : 400 pixels
Display aspect ratio : 16:9
Frame rate : 23.976 fps
Color space : YUV
Chroma subsampling : 4:2:0
Bit depth : 8 bits
Scan type : Progressive
Bits/(Pixel*Frame) : 0.268
Stream size : 1.23 GiB (57%)
Writing library : XviD 65
Audio #1
ID : 1
Format : AC-3
Format/Info : Audio Coding 3
Mode extension : CM (complete main)
Codec ID : 2000
Duration : 1h 35mn
Bit rate mode : Constant
Bit rate : 448 Kbps
Channel(s) : 6 channels
Channel positions : Front: L C R, Side: L R, LFE
Sampling rate : 48.0 KHz
Bit depth : 16 bits
Stream size : 306 MiB (14%)
Alignment : Split accross interleaves
Interleave, duration : 42 ms (1.00 video frame)
Interleave, preload duration : 500 ms
Audio #2
ID : 2
Format : AC-3
Format/Info : Audio Coding 3
Mode extension : CM (complete main)
Codec ID : 2000
Duration : 1h 35mn
Bit rate mode : Constant
Bit rate : 448 Kbps
Channel(s) : 6 channels
Channel positions : Front: L C R, Side: L R, LFE
Sampling rate : 48.0 KHz
Bit depth : 16 bits
Stream size : 306 MiB (14%)
Alignment : Split accross interleaves
Interleave, duration : 42 ms (1.00 video frame)
Interleave, preload duration : 500 ms
Audio #3
ID : 3
Format : AC-3
Format/Info : Audio Coding 3
Mode extension : CM (complete main)
Codec ID : 2000
Duration : 1h 35mn
Bit rate mode : Constant
Bit rate : 448 Kbps
Channel(s) : 6 channels
Channel positions : Front: L C R, Side: L R, LFE
Sampling rate : 48.0 KHz
Bit depth : 16 bits
Stream size : 306 MiB (14%)
Alignment : Split accross interleaves
Interleave, duration : 42 ms (1.00 video frame)
Interleave, preload duration : 500 ms
Всем приятного просмотра!
[Профиль]  [ЛС] 

xerman13

Морской Волк

Пост 27-Окт-2013 11:36 (спустя 8 дней)

[Q] 

435786xerman13,
Саня, а тебе самому интересен этот переговорщик?
Этот голос мне подарили в свое время, как голос Ю.Сербина. На деле там оказался Дасевич. Так он и остался у меня, а предложил я его исключительно для полноты сборки.
[Профиль]  [ЛС] 

_48ronin_ ®

Корсар

534

Пост 10-Ноя-2013 16:53 (спустя 14 дней)

[Q] 

Давайте уже куда-нибудь двинемся. Предлагаю это кино Антону в перевод http://www.kinopoisk.ru/film/601483/
[Профиль]  [ЛС] 

feldeger

1587

Пост 10-Ноя-2013 18:37 (спустя 1 час 43 минуты)

[Q] 

Предлагаю Грязь / Filth http://www.kinopoisk.ru/film/467293/
и вот это Гравитация / Gravity http://www.kinopoisk.ru/film/468466/
Исходников пока нет, но думаю скоро появятся.

_________________
Полетел основной комп. Пауза...
[Профиль]  [ЛС] 

Wolf_Larsen

Флибустьер

1311

Пост 10-Ноя-2013 20:02 (спустя 1 час 25 минут)

[Q] 

Малавита http://www.kinopoisk.ru/film/682669/
[Профиль]  [ЛС] 

gross1978

7598

Пост 10-Ноя-2013 20:15 (спустя 12 минут)

[Q] 

Два ствола http://www.kinopoisk.ru/film/464290/
Моя рецензия к фильму 2 ствола
Приятный сюрприз, скажу я Вам, выкопать среди сущего дерьма «конфетку». Может быть не самую вкусную и слегка «попахивающую», но все же конфетку. Посмотрев фильм АНАБОЛИКИ мне почему-то показалось (несмотря на достаточную смотрибельность фильма), что карьера Марка Уолберга близка к завершающему финалу, Ан нет, есть еще порох в пороховницах…
Новый фильм с его участием и изрядной подпиткой Дэнзела Вашингтона показался мне вполне себе занимательным.
Два «безбашенных грабителя» решили кинуть на деньги наркобарона, вскрыв ячейки банка с 3-мя млн. $, принадлежащими мексиканскому наркокортелю. И каково было их удивление, когда они обнаружили, что в ячейках не «каких-то там» 3 миллиона, а целых 43 млн. 125 тысяч долларов, за которые им явно могут снести голову.
Головокружительные погони, стрельбы, безостановочный поток искрящего юмора – вот все, что необходимо хорошему боевику. В этом фильме всего этого отбавляй. Но…. Как я говорил выше не обошлось из без «запашка», финал начисто срезан из другого более маститого фильма, а реализован на порядок слабее. Не буду подробно останавливаться на перепетиях судеб героев, сценарных ходах и собственно финале, дабы не испортить впечатление о предстоящем просмотре.
Убедительно смотрелся Вашингтон, «лихо и придурковато» - Уолберг (Ну вы помните, наверное, когда-то его звали «Марки Марк», а еще раньше «Нью кидс оф зэ блок»), эротично и раскрепощенно - Пола Пэттон (запомнилась по фильмам «Дежа вю» и «Зеркала») ну и, собственно, приятно было наблюдать возвращение в «большое кино» когда-то именитого, а ныне забытого «актера второго плана» Била Пэкстона (известного по фильмам «Аполло 13», «Смерч», «Тоумбстоун» и конечно же «Правдивая ложь», где, если помните, он сыграл роль придурковатого ловеласа, «разводящего» домохозяек на секс, представляясь супершпионом:))
В общем, приличный комедийный боевик, коих в последнее время снимается уж больно мало.
Моя оценка 9 из 10.

_________________
Употребляйте правильно слова, и вы избавите мир от половины недоразумений (Р.Декарт).
Если у Вас есть переводы в авторском, которых нет в моих раздачах и желание ими поделиться, пишите, добавим:)
[Профиль]  [ЛС] 

Wolf_Larsen

Флибустьер

1311

Пост 10-Ноя-2013 20:54 (спустя 39 минут)

[Q] 

gross1978, О точно "Два ствола" и "Малавита" шикарней не придумаеш!!!
[Профиль]  [ЛС] 

SavineX

76

Пост 10-Ноя-2013 21:27 (спустя 32 минуты)

[Q] 

446544gross1978, О точно "Два ствола" и "Малавита" шикарней не придумаеш!!!
+
[Профиль]  [ЛС] 

_shurik_

Корсар

Пост 18-Ноя-2013 12:51 (спустя 7 дней)

[Q] 

Малавиту поддержу.
Два ствола тоже здорово, только на него переводов уже понаделают. Да и участников в клубе осталось мизер, врядли на два фильма потянем.
[Профиль]  [ЛС] 

gross1978

7598

Пост 18-Ноя-2013 15:10 (спустя 2 часа 18 минут)

[Q] 

Ну так погнали хоть один сделаем, чего уж ждать, пора и тему начать тому кто ее предлагал. Малавиту поддержу..

_________________
Употребляйте правильно слова, и вы избавите мир от половины недоразумений (Р.Декарт).
Если у Вас есть переводы в авторском, которых нет в моих раздачах и желание ими поделиться, пишите, добавим:)
[Профиль]  [ЛС] 

arvideo

Корсар

Пост 19-Ноя-2013 00:38 (спустя 9 часов)

[Q] 

"Грязь" поинтересней будет, чем "Малавита", только как я понял исходников на неё пока нет.:(

_________________
Судя по форумам, большинство людей не могут жить без того, что бы не наступить на одни и теже грабли. Раз пять, не меньше!
[Профиль]  [ЛС] 

xerman13

Морской Волк

Пост 03-Дек-2013 10:41 (спустя 14 дней)

[Q] 

В этот раз такие фильмы предлагаются на перевод, что глаза разбегаются.
Мерзлая земля, Малавита, Грязь, Два ствола - поддерживаю эти фильмы для отбора на голосование.
[Профиль]  [ЛС] 

xerman13

Морской Волк

Пост 13-Дек-2013 03:47 (спустя 9 дней)

[Q] 

Хотел бы узнать какие новости в клубе, а то как-то тихо уже и причем давно.
[Профиль]  [ЛС] 

Karpovsky

Корсар

Пост 14-Дек-2013 22:06 (спустя 1 день 18 часов)

[Q] 

Давайте уже исходник на какой-нибудь фильм. Я на следующей неделе чего-нить переведу для Клуба.
[Профиль]  [ЛС] 

gross1978

7598

Пост 14-Дек-2013 22:33 (спустя 26 минут)

[Q] 

Я молодой учасник. Каким образом дать исходник? и опять же на какой фильм, и опять же кто поддержит, а то я один не потяну....

_________________
Употребляйте правильно слова, и вы избавите мир от половины недоразумений (Р.Декарт).
Если у Вас есть переводы в авторском, которых нет в моих раздачах и желание ими поделиться, пишите, добавим:)
[Профиль]  [ЛС] 

Karpovsky

Корсар

Пост 14-Дек-2013 22:41 (спустя 8 минут)

[Q] 

462286Я молодой участник. Каким образом дать исходник? и опять же на какой фильм, и опять же кто поддержит, а то я один не потяну....
А здесь один взнос для всех. 300 рублей на данный момент. И кто-то уже давно их перечислил, поэтому я в любом случае, какой-то фильм до НГ сделаю. Вопрос в том, - какой именно.
Всем концессионерам будет разослан чистый голос, а со временем, будет какая -то сборка, здесь на сайте.
Об этом написано в Правилах Клуба на первой странице этого длинного топика.
[Профиль]  [ЛС] 
Показать сообщения:    
Ответить на тему

Текущее время: Сегодня 22:46

Часовой пояс: GMT + 4



Вы не можете начинать темы
Вы не можете отвечать на сообщения
Вы не можете редактировать свои сообщения
Вы не можете удалять свои сообщения
Вы не можете голосовать в опросах
Вы не можете прикреплять файлы к сообщениям
Вы не можете скачивать файлы

▼ Вниз