Рецепт вечной молодости [2008 г., Документальный, SATRip] [ R.G. DOCpiratTV]

Ответить на тему
 
Автор
Сообщение

Пост 29-Окт-2011 14:07

[Q] 

Степаныч

Рецепт вечной молодости
Год выпуска: 2008
Страна: Россия
Жанр: Документальный
Продолжительность: 00:44:08
Перевод: Не требуется
Описание: Как обмануть время и избежать старости? Сколько существует человечество, столько оно пытается найти ответ на этот вопрос. С каждым поколением врачи все ближе подбираются к разгадке но истинного рецепта вечной молодости не нашли до сих пор.
Качество: SATRip
Формат: AVI
Видео кодек: DivX
Аудио кодек: MP3
Субтитры:Украинские
Релиз подготовлен
Видео: MPEG4, DivX 5, 720x540 (4/3), 25.000 fps, 3 000 Kbps (0.309 bit/pixel)
Аудио: MP3, 48.0 KHz, 2 ch, 192 Kbps, CBR
Формат : DivX
Формат/Информация : Hack of AVI
Размер файла : 1011 Мбайт
Продолжительность : 44 м.
Общий поток : 3202 Кбит/сек
Видео
Идентификатор : 0
Формат : MPEG-4 Visual
Параметр BVOP формата : Нет
Параметр QPel формата : Нет
Параметр GMC формата : Без точки перехода
Параметр матрицы формата : Default (H.263)
Идентификатор кодека : DX50
Идентификатор кодека/Подсказка : DivX 5
Продолжительность : 44 м.
Битрейт : 3000 Кбит/сек
Ширина : 720 пикс.
Высота : 540 пикс.
Соотношение сторон : 4:3
Частота кадров : 25,000 кадр/сек
Цветовое пространство : YUV
Подвыборка цветности : 4:2:0
Битовая глубина : 8 бит
Тип развёртки : Прогрессивная
Метод сжатия : С потерями
Бит/(Пиксели*Кадры) : 0.309
Размер потока : 947 Мбайт (94%)
Заголовок : Video
Библиотека кодирования : DivX 6.6.1.4
Аудио
Идентификатор : 1
Формат : MPEG Audio
Версия формата : Version 1
Профиль формата : Layer 3
Режим : Joint stereo
Расширение режима : MS Stereo
Идентификатор кодека : 55
Идентификатор кодека/Подсказка : MP3
Продолжительность : 44 м.
Вид битрейта : Постоянный
Битрейт : 192 Кбит/сек
Канал(ы) : 2 канала(ов)
Частота : 48,0 КГц
Метод сжатия : С потерями
Размер потока : 60,6 Мбайт (6%)
Выравнивание : Разделение по промежуткам
Продолжительность промежутка : 40 мс. (1,00 видеокадр)
Время предзагрузки промежутка : 500 ms
Заголовок : Audio
Библиотека кодирования : LAME3.96



Download / Скачать

Хотите скачать бесплатно? Зарегистрируйтесь на сайте (ссылка на регистрацию). Pirat.ca - самый быстрый торрент трекер в рунете!

Как скачивать  ·   Что такое торрент  ·   Рейтинг и ограничения

Krukov_Aleksey

Корсар

Пост 01-Ноя-2011 12:23 (спустя 2 дня 22 часа)

[Q] 

Спасибо, смотреть больше нечего придется скачать и заслужить рейтинг на раздачи
[Профиль]  [ЛС] 

ParMarVarKar

Шкипер

Пост 04-Ноя-2011 21:45 (спустя 3 дня)

[Q] 

Спасибо раздающему!
[Профиль]  [ЛС] 

andre2011

Штурман

Пост 21-Ноя-2011 23:25 (спустя 17 дней)

[Q] 

Посмотрим,спасибо
[Профиль]  [ЛС] 

ivan836

Морской Волк

Пост 01-Мар-2012 08:59 (спустя 3 месяца 8 дней)

[Q] 

Спасибо!!!!
[Профиль]  [ЛС] 

C0y0te

1551

Пост 01-Мар-2012 14:40 (спустя 5 часов)

[Q] 

[Профиль]  [ЛС] 

me14

1012

Пост 17-Мар-2012 21:13 (спустя 16 дней)

[Q] 


_________________
Если вы все еще не забанены - это не ваша заслуга, а модераторская недоработка.
[Профиль]  [ЛС] 
Показать сообщения:    
Ответить на тему

Текущее время: Сегодня 04:24

Часовой пояс: GMT + 4



Вы не можете начинать темы
Вы не можете отвечать на сообщения
Вы не можете редактировать свои сообщения
Вы не можете удалять свои сообщения
Вы не можете голосовать в опросах
Вы не можете прикреплять файлы к сообщениям
Вы не можете скачивать файлы

Майнать ▼