Проклятые драгоценности. Тайная власть камней (Екатерина Даведяк) [2009 г., документальный, SATRip] [R.G. DOCpiratTV]

Ответить на тему
 
Автор
Сообщение

Пост 31-Дек-2011 12:43

[Q] 

Степаныч

Проклятые драгоценности. Тайная власть камней
Год выпуска: 2009
Производство: Россия
Жанр: документальный
Продолжительность: 00:45:58
Перевод: Не требуется
Субтитры: Украинские
Режиссер: Екатерина Даведяк
Описание: Авторы фильма пытаются раскрыть загадку мистики камней. Какой силой обладают
самые, на первый взгляд, неодушевленные предметы на свете? История экстрасенса
Вячеслава Климова показывает, что даже обыкновенные булыжники несут в себе мощную
неизученную наукой энергетику. После того, как в руки к Вячеславу попал странный
кристалл, у мужчины открылись способности к ясновидению. На съемках мистического
сериала о тамплиерах режиссер Андрей Бенкендорф выжил лишь благодаря перстню с
небольшим сердоликом, который ему подарила мать...
Источник/Качество: SATRip
Формат: MPEG
Видео кодек: MPEG4
Аудио кодек: AAC
Видео: MPEG4, 640x480 (4/3), 25.000 fps, 1 713 Kbps (0.223 bit/pixel)
Аудио: AAC LC, 48.0 KHz, 2 ch, 128 Kbps, VBR
Релиз подготовлен
Формат : MPEG-4
Профиль формата : Base Media / Version 2
Идентификатор кодека : mp42
Размер файла : 607 Мбайт
Продолжительность : 45 м.
Общий поток : 1846 Кбит/сек
Дата кодирования : UTC 2011-12-31 09:24:43
Дата пометки : UTC 2011-12-31 09:24:43
Видео
Идентификатор : 1
Формат : MPEG-4 Visual
Профиль формата : [email protected]
Параметр BVOP формата : Нет
Параметр QPel формата : Нет
Параметр GMC формата : Без точки перехода
Параметр матрицы формата : Default (H.263)
Идентификатор кодека : 20
Продолжительность : 45 м.
Вид битрейта : Переменный
Битрейт : 1713 Кбит/сек
Максимальный битрейт : 5540 Кбит/сек
Ширина : 640 пикс.
Высота : 480 пикс.
Соотношение сторон : 4:3
Режим частоты кадров : Постоянный
Частота кадров : 25,000 кадр/сек
Цветовое пространство : YUV
Подвыборка цветности : 4:2:0
Битовая глубина : 8 бит
Тип развёртки : Прогрессивная
Метод сжатия : С потерями
Бит/(Пиксели*Кадры) : 0.223
Размер потока : 563 Мбайт (93%)
Язык : English
Дата кодирования : UTC 2011-12-31 09:24:43
Дата пометки : UTC 2011-12-31 09:24:43
Аудио
Идентификатор : 2
Формат : AAC
Формат/Информация : Advanced Audio Codec
Профиль формата : LC
Идентификатор кодека : 40
Продолжительность : 45 м.
Вид битрейта : Переменный
Битрейт : 128 Кбит/сек
Максимальный битрейт : 138 Кбит/сек
Канал(ы) : 2 канала(ов)
Расположение каналов : Front: L R
Частота : 48,0 КГц
Метод сжатия : С потерями
Размер потока : 42,0 Мбайт (7%)
Язык : English
Дата кодирования : UTC 2011-12-31 09:24:43
Дата пометки : UTC 2011-12-31 09:24:43



Download / Скачать

Хотите скачать бесплатно? Зарегистрируйтесь на сайте (ссылка на регистрацию). Pirat.ca - самый быстрый торрент трекер в рунете!

Как скачивать  ·   Что такое торрент  ·   Рейтинг и ограничения

ficus42

Корсар

Пост 13-Янв-2012 17:06 (спустя 13 дней)

[Q] 

фильм хороший!!
[Профиль]  [ЛС] 

me14

1012

Пост 17-Мар-2012 21:14 (спустя 2 месяца 4 дня)

[Q] 


_________________
Если вы все еще не забанены - это не ваша заслуга, а модераторская недоработка.
[Профиль]  [ЛС] 
Показать сообщения:    
Ответить на тему

Текущее время: Сегодня 07:07

Часовой пояс: GMT + 4



Вы не можете начинать темы
Вы не можете отвечать на сообщения
Вы не можете редактировать свои сообщения
Вы не можете удалять свои сообщения
Вы не можете голосовать в опросах
Вы не можете прикреплять файлы к сообщениям
Вы не можете скачивать файлы

Майнать ▼