Ограбление по-итальянски / The Italian Job (Ф. Гэри Грей / F. Gary Gray) [2003, боевик, триллер, криминал, BDRip, 720p] (Dub)

Ответить на тему
 
Автор
Сообщение

Пост 02-Янв-2012 21:28

[Q] 

goxakrauter

Ограбление по-итальянски
The Italian Job
- Год выпуска: 2003
Страна: США, Франция, Великобритания
Жанр: боевик, триллер, криминал
Продолжительность: 01:50:31
Перевод : Профессиональный (полное дублирование)-Режиссёр: Ф. Гэри Грей / F. Gary Gray
В ролях: Марк Уолберг, Шарлиз Терон, Дональд Сазерленд, Джейсон Стэтхэм, Сет Грин, Мос Деф, Эдвард Нортон, Фаусто Каллегарини, Стефано Петронелли, Фабио Скарпа
Описание: Банда грабителей под руководством Чарли Крокера во всю прыть несется на Мини Куперах по улицам Лос-Анджелеса и даже заныривает в подземку. Банда стремится увезти в безопасное место добычу — сейф, набитый золотом.
В Лос-Анджелесе с его чудовищными пробками просто так не поездишь, поэтому банда предварительно позаботилась о «зеленой улице» для себя: на всех светофорах по пути их следования горит только зеленый свет. Для остальных, соответственно, горит красный, что провоцирует грандиознейшую в истории Лос-Анджелеса дорожную пробку.-Качество: BDRip 720p
Формат: *.mp4
Видео кодек: H.264
аудио кодек: ААС
Разрешение: 1280 x 544
Видео: MPEG4 Video (H264) 1280x544 23.98fps
Аудио: AAC 48000Hz 6ch 158 Kbps
Вшитая обложка: есть
Доп. теги (режиссёр, актёры и т.д.): прописаны-
General
Complete name : M:\ipod\The Italian Job.2003.BDRip.x264.mp4
Format : MPEG-4
Format profile : Base Media
Codec ID : isom
File size : 2.24 GiB
Duration : 1h 50mn
Overall bit rate : 2 903 Kbps
Movie name : Ограбление по итальянски / Italian Job
Performer : Ф. Гэри Грей
Genre : Crime
Encoded date : 2003
Tagged date : UTC 2011-01-17 17:48:23
Cover : Yes
iTunEXTC : mpaa|PG-13|300|
iTunMOVI : <?xml version="1.0" encoding="UTF-8"?> / <!DOCTYPE plist PUBLIC "-//Apple//DTD PLIST 1.0//EN" "http://www.apple.com/DTDs/PropertyList-1.0.dtd"> / <plist version="1.0"> / <dict> / <key>directors</key> / <array> / <dict> / <key>name</key> / <string>Ф. Гэри Грей</string> / </dict> / </array> / <key>producers</key> / <array> / <dict> / <key>name</key> / <string>Тим Беван</string> / </dict> / <dict> / <key>name</key> / <string>Гвидо Черасуоло</string> / </dict> / <dict> / <key>name</key> / <string>Дональд Де Лайн</string> / </dict> / </array> / <key>screenwriters</key> / <array> / <dict> / <key>name</key> / <string>Трой Кеннеди-Мартин</string> / </dict> / <dict> / <key>name</key> / <string>Донна Пауэрс</string> / </dict> / <dict> / <key>name</key> / <string>Уэйн Пауэрс</string> / </dict> / </array> / </dict> / </plist>
ldes : Банда грабителей под руководством Чарли Крокера во всю прыть несется на Мини Куперах по улицам Лос-Анджелеса и даже заныривает в подземку. Банда стремится увезти в безопасное место добычу — сейф, набитый золотом. / / В Лос-Анджелесе с его чудовищными пробками просто так не поездишь, поэтому банда предварительно позаботилась о «зеленой улице» для себя: на всех светофорах по пути их следования горит только зеленый свет. Для остальных, соответственно, горит красный, что провоцирует грандиознейшую в истории Лос-Анджелеса дорожную пробку.
hdvd : 1
stik : 9
Video
ID : 1
Format : AVC
Format/Info : Advanced Video Codec
Format profile : [email protected]
Format settings, CABAC : Yes
Format settings, ReFrames : 2 frames
Codec ID : avc1
Codec ID/Info : Advanced Video Coding
Duration : 1h 50mn
Bit rate mode : Variable
Bit rate : 2 738 Kbps
Maximum bit rate : 17.1 Mbps
Width : 1 280 pixels
Height : 544 pixels
Display aspect ratio : 2.35:1
Frame rate mode : Constant
Frame rate : 23.976 fps
Color space : YUV
Chroma subsampling : 4:2:0
Bit depth : 8 bits
Scan type : Progressive
Bits/(Pixel*Frame) : 0.164
Stream size : 2.11 GiB (94%)
Title : Imported with GPAC 0.4.6-DEV (build 1)
Writing library : x264 core 92 r1510 33d382a
Encoding settings : cabac=1 / ref=2 / deblock=1:-2:-1 / analyse=0x3:0x111 / me=umh / subme=9 / psy=1 / psy_rd=1.00:0.80 / mixed_ref=1 / me_range=24 / chroma_me=1 / trellis=2 / 8x8dct=1 / cqm=0 / deadzone=21,11 / fast_pskip=1 / chroma_qp_offset=-4 / threads=12 / sliced_threads=0 / nr=0 / decimate=1 / interlaced=0 / constrained_intra=0 / bframes=3 / b_pyramid=0 / b_adapt=0 / b_bias=0 / direct=1 / wpredb=1 / wpredp=2 / keyint=250 / keyint_min=25 / scenecut=40 / intra_refresh=0 / rc_lookahead=40 / rc=crf / mbtree=1 / crf=20.0 / qcomp=0.60 / qpmin=10 / qpmax=51 / qpstep=4 / ip_ratio=1.40 / aq=1:1.00
Encoded date : UTC 2011-01-16 17:17:37
Tagged date : UTC 2011-01-16 17:18:59
Audio
ID : 2
Format : AAC
Format/Info : Advanced Audio Codec
Format profile : LC
Codec ID : 40
Duration : 1h 50mn
Bit rate mode : Variable
Bit rate : 158 Kbps
Maximum bit rate : 226 Kbps
Channel(s) : 6 channels
Channel positions : Front: L C R, Side: L R, LFE
Sampling rate : 48.0 KHz
Compression mode : Lossy
Stream size : 125 MiB (5%)
Encoded date : UTC 2011-01-16 17:18:56
Tagged date : UTC 2011-01-16 17:18:59



-Релиз предназначен только для воспроизведения на iPhone 4, iPod Touch 4g и iPad
На более ранних поколениях девайсов Apple он не воспроизведётся!

По отзывам пользователей, фильм идет и на iPhone 3gs, но сам лично не проверял.-Описание Retina Display-Чтобы не было вопросов, объясняю: iPhone 4, iPod Touch 4 и iPad поддерживают видео H.264 с частотой развёртки до 720p, т.е. до 1280 x 720 пикселей.ссылка
Download / Скачать

Хотите скачать бесплатно? Зарегистрируйтесь на сайте (ссылка на регистрацию). Pirat.ca - самый быстрый торрент трекер в рунете!

Как скачивать  ·   Что такое торрент  ·   Рейтинг и ограничения

CHARLI2236

1244

Пост 25-Июн-2012 18:08 (спустя 5 месяцев 22 дня)

[Q] 

благодарю

_________________
[Профиль]  [ЛС] 
Показать сообщения:    
Ответить на тему

Текущее время: Сегодня 19:00

Часовой пояс: GMT + 4



Вы не можете начинать темы
Вы не можете отвечать на сообщения
Вы не можете редактировать свои сообщения
Вы не можете удалять свои сообщения
Вы не можете голосовать в опросах
Вы не можете прикреплять файлы к сообщениям
Вы не можете скачивать файлы

Майнать ▼