1+1 / Неприкасаемые / Intouchables (Оливье Накаш / Olivier Nakache, Эрик Толедано / Eric Toledano) [2011 г., драма, комедия, BDRip, 720p] (Dub+DVO+VO)

Ответить на тему
 
Автор
Сообщение

Пост 07-Авг-2012 20:23

[Q] 

goxakrauter

Неприкасаемые [1+1]
Intouchables
-- Год выпуска: 2011
Страна: Франция
Жанр: драма, комедия
Продолжительность: 01:47:45
Перевод:
  • Профессиональный (дублированный) [Лицензия]
  • Любительский (двухголосый) закадровый Kenum и Ирина ЮС
  • Одноголосый закадровый zamez
--Режиссер: Оливье Накаш / Olivier Nakache, Эрик Толедано / Eric Toledano
В ролях: Франсуа Клюзе, Омар Сай, Анн Ле Ни, Одри Флеро, Клотильд Молле, Альба Гайя, Крагеде Беллуджи, Сирил Менди, Кристиан Амери, Грегуар Эстерманн, Жозефин де Мо--Описание: Пострадав в результате несчастного случая, богатый аристократ Филипп нанимает в помощники человека, который менее всего подходит для этой работы, — молодого жителя предместья, араба Дрисса, только что освободившегося из тюрьмы. Несмотря на то, что Филипп прикован к инвалидному креслу, Дриссу удается привнести в размеренную жизнь аристократа дух приключений.--Качество: BDRip
Формат: m4v
Видео кодек: H.264
Аудио кодек: AAC
Видео: 1280x696, 3500 Kbps, 24 fps
Аудио
  • Rus: 48 kHz, AAC, 2ch, 132.3 kbps - Профессиональный (дублированный)
  • Rus: 48 kHz, AAC, 2ch, 144 kbps - Одноголосый закадровый zamez
  • Rus: 48 kHz, AAC, 2ch, 147 kbps - Любительский (двухголосый) закадровый Kenum и Ирина ЮС
  • Fre: 48 kHz, AAC, 2ch, 182 kbps - Оригинал

Вшитая обложка: есть
Доп. теги (режиссёр, актёры и т.д.): прописаны
Субтитры: русский, английский, французский--
General
Complete name : F:\iPad\Intouchables.m4v
Format : MPEG-4
Codec ID : M4V
File size : 3.22 GiB
Duration : 1h 52mn
Overall bit rate mode : Variable
Overall bit rate : 4 116 Kbps
Movie name : 1+1
Performer : Оливье Накаш, Эрик Толедано
Genre : Comedy
Recorded date : UTC 2011-09-23 07:00:00
Encoded date : UTC 2012-03-26 12:52:50
Tagged date : UTC 2012-05-19 15:21:42
Cover : Yes
desc : Пострадав в результате несчастного случая, богатый аристократ Филипп нанимает в помощники человека, который менее всего подходит для этой работы, — молодого жителя предместья, араба Дрисса, только что освободившегося из тюрьмы. Несмотря на то, что Филипп прикован к инвалидному креслу, Дриссу удается привнести в размеренную жизнь аристократа дух приключений.
ldes : Пострадав в результате несчастного случая, богатый аристократ Филипп нанимает в помощники человека, который менее всего подходит для этой работы, — молодого жителя предместья, араба Дрисса, только что освободившегося из тюрьмы. Несмотря на то, что Филипп прикован к инвалидному креслу, Дриссу удается привнести в размеренную жизнь аристократа дух приключений.
hdvd : 1
stik : 9
rtng : 0
cnID : 494842667
xid : iPad:vendor_id:2011-535341
iTunEXTC : fr-movie|Tout Public|100|
iTunMOVI : <?xml version="1.0" encoding="UTF-8"?> / <!DOCTYPE plist PUBLIC "-//Apple//DTD PLIST 1.0//EN" "http://www.apple.com/DTDs/PropertyList-1.0.dtd"> / <plist version="1.0"> / <dict> / <key>cast</key> / <array> / <dict> / <key>name</key> / <string>Франсуа Клюзе</string> / </dict> / <dict> / <key>name</key> / <string>Омар Сай</string> / </dict> / <dict> / <key>name</key> / <string>Анн Ле Ни</string> / </dict> / <dict> / <key>name</key> / <string>Одри Флеро</string> / </dict> / <dict> / <key>name</key> / <string>Клотильд Молле</string> / </dict> / <dict> / <key>name</key> / <string>Альба Гайя</string> / </dict> / <dict> / <key>name</key> / <string>Крагеде Беллуджи</string> / </dict> / <dict> / <key>name</key> / <string>Сирил Менди</string> / </dict> / <dict> / <key>name</key> / <string>Кристиан Амери</string> / </dict> / <dict> / <key>name</key> / <string>Грегуар Эстерманн</string> / </dict> / <dict> / <key>name</key> / <string>Жозефин де Мо</string> / </dict> / </array> / <key>directors</key> / <array> / <dict> / <key>name</key> / <string>Оливье Накаш</string> / </dict> / <dict> / <key>name</key> / <string>Эрик Толедано </string> / </dict> / </array> / <key>producers</key> / <array> / <dict> / <key>name</key> / <string>Николя Дюваль-Адассовски</string> / </dict> / <dict> / <key>name</key> / <string>Лорен Зэйтун</string> / </dict> / <dict> / <key>name</key> / <string>Ян Зеноу</string> / </dict> / </array> / <key>screenwriters</key> / <array> / <dict> / <key>name</key> / <string>Оливье Накаш</string> / </dict> / <dict> / <key>name</key> / <string>Эрик Толедано </string> / </dict> / </array> / </dict> / </plist>
Video #1
ID : 1
Format : AVC
Format/Info : Advanced Video Codec
Format profile : [email protected]
Format settings, CABAC : Yes
Format settings, ReFrames : 11 frames
Codec ID : avc1
Codec ID/Info : Advanced Video Coding
Duration : 1h 52mn
Bit rate : 3 500 Kbps
Maximum bit rate : 11.5 Mbps
Width : 1 280 pixels
Height : 696 pixels
Display aspect ratio : 16:9
Frame rate mode : Variable
Frame rate : 24.000 fps
Minimum frame rate : 12.048 fps
Maximum frame rate : 24.390 fps
Color space : YUV
Chroma subsampling : 4:2:0
Bit depth : 8 bits
Scan type : Progressive
Bits/(Pixel*Frame) : 0.164
Stream size : 2.73 GiB (85%)
Writing library : x264 core 120
Encoding settings : cabac=1 / ref=11 / deblock=1:-2:-1 / analyse=0x3:0x113 / me=umh / subme=11 / psy=1 / psy_rd=1.10:0.15 / mixed_ref=1 / me_range=32 / chroma_me=1 / trellis=2 / 8x8dct=1 / cqm=0 / deadzone=21,11 / fast_pskip=1 / chroma_qp_offset=-3 / threads=3 / sliced_threads=0 / nr=0 / decimate=1 / interlaced=0 / bluray_compat=0 / constrained_intra=0 / bframes=10 / b_pyramid=2 / b_adapt=2 / b_bias=0 / direct=3 / weightb=1 / open_gop=0 / weightp=2 / keyint=240 / keyint_min=24 / scenecut=40 / intra_refresh=0 / rc_lookahead=50 / rc=2pass / mbtree=1 / bitrate=3500 / ratetol=1.0 / qcomp=0.60 / qpmin=3 / qpmax=69 / qpstep=4 / cplxblur=20.0 / qblur=0.5 / ip_ratio=1.40 / aq=1:1.20
Encoded date : UTC 2012-03-26 12:52:50
Tagged date : UTC 2012-03-26 13:00:21
Color primaries : BT.709-5, BT.1361, IEC 61966-2-4, SMPTE RP177
Transfer characteristics : BT.709-5, BT.1361
Matrix coefficients : BT.709-5, BT.1361, IEC 61966-2-4 709, SMPTE RP177
Video #2
ID : 10
Format : JPEG
Codec ID : jpeg
Duration : 1h 52mn
Bit rate mode : Variable
Bit rate : 1 330 bps
Width : 640 pixels
Height : 348 pixels
Display aspect ratio : 16:9
Frame rate mode : Variable
Frame rate : 0.003 fps
Minimum frame rate : 0.002 fps
Maximum frame rate : 0.005 fps
Compression mode : Lossy
Bits/(Pixel*Frame) : 1.991
Stream size : 974 KiB (0%)
Encoded date : UTC 2012-05-19 15:10:22
Tagged date : UTC 2012-05-19 15:10:23
Audio #1
ID : 2
Format : AAC
Format/Info : Advanced Audio Codec
Format profile : LC
Codec ID : 40
Duration : 1h 52mn
Bit rate mode : Variable
Bit rate : 144 Kbps
Maximum bit rate : 210 Kbps
Channel(s) : 2 channels
Channel positions : Front: L R
Sampling rate : 48.0 KHz
Compression mode : Lossy
Stream size : 117 MiB (4%)
Language : Russian
Encoded date : UTC 2012-03-26 12:58:46
Tagged date : UTC 2012-03-26 13:00:21
Audio #2
ID : 3
Format : AAC
Format/Info : Advanced Audio Codec
Format profile : LC
Codec ID : 40
Duration : 1h 52mn
Bit rate mode : Variable
Bit rate : 147 Kbps
Maximum bit rate : 194 Kbps
Channel(s) : 2 channels
Channel positions : Front: L R
Sampling rate : 48.0 KHz
Compression mode : Lossy
Stream size : 118 MiB (4%)
Language : Russian
Encoded date : UTC 2012-03-26 12:59:18
Tagged date : UTC 2012-03-26 13:00:21
Audio #3
ID : 4
Format : AAC
Format/Info : Advanced Audio Codec
Format profile : LC
Codec ID : 40
Duration : 1h 52mn
Bit rate mode : Variable
Bit rate : 182 Kbps
Maximum bit rate : 307 Kbps
Channel(s) : 2 channels
Channel positions : Front: L R
Sampling rate : 48.0 KHz
Compression mode : Lossy
Stream size : 146 MiB (4%)
Language : French
Encoded date : UTC 2012-03-26 12:59:50
Tagged date : UTC 2012-03-26 13:00:21
Audio #4
ID : 5
Format : AAC
Format/Info : Advanced Audio Codec
Format profile : LC
Codec ID : 40
Duration : 1h 52mn
Bit rate mode : Variable
Bit rate : 132 Kbps
Maximum bit rate : 200 Kbps
Channel(s) : 2 channels
Channel positions : Front: L R
Sampling rate : 48.0 KHz
Compression mode : Lossy
Stream size : 107 MiB (3%)
Language : Russian
Encoded date : UTC 2012-05-19 15:08:50
Tagged date : UTC 2012-05-19 15:09:51
Text #1
ID : 6
Format : Timed text
Muxing mode : sbtl
Codec ID : tx3g
Duration : 1h 48mn
Bit rate mode : Variable
Bit rate : 100 bps
Stream size : 79.1 KiB (0%)
Language : Russian
Encoded date : UTC 2012-05-19 15:08:50
Tagged date : UTC 2012-05-19 15:09:56
Text #2
ID : 7
Format : Timed text
Muxing mode : sbtl
Codec ID : tx3g
Duration : 1h 48mn
Bit rate mode : Variable
Bit rate : 58 bps
Stream size : 45.9 KiB (0%)
Language : French
Encoded date : UTC 2012-05-19 15:08:50
Tagged date : UTC 2012-05-19 15:10:00
Text #3
ID : 8
Format : Timed text
Muxing mode : sbtl
Codec ID : tx3g
Duration : 1h 48mn
Bit rate mode : Variable
Bit rate : 64 bps
Stream size : 50.8 KiB (0%)
Language : English
Encoded date : UTC 2012-05-19 15:08:50
Tagged date : UTC 2012-05-19 15:10:00
Text #4
ID : 9
Format : Apple text
Codec ID : text
Duration : 1h 52mn
Bit rate mode : Variable
Bit rate : 1 bps
Stream size : 423 Bytes (0%)
Language : English
Encoded date : UTC 2012-05-19 15:10:00
Tagged date : UTC 2012-05-19 15:10:00
Menu
00:00:00.000 : Chapter 1
00:07:26.000 : Chapter 2
00:12:54.375 : Chapter 3
00:18:56.666 : Chapter 4
00:26:51.958 : Chapter 5
00:30:50.708 : Chapter 6
00:37:26.208 : Chapter 7
00:42:05.666 : Chapter 8
00:48:45.333 : Chapter 9
00:54:26.250 : Chapter 10
00:58:02.708 : Chapter 11
01:04:06.833 : Chapter 12
01:14:27.041 : Chapter 13
01:21:39.833 : Chapter 14
01:29:26.125 : Chapter 15
01:35:56.875 : Chapter 16
01:40:22.041 : Chapter 17
01:45:12.541 : Chapter 18
Download / Скачать

Хотите скачать бесплатно? Зарегистрируйтесь на сайте (ссылка на регистрацию). Pirat.ca - самый быстрый торрент трекер в рунете!

Как скачивать  ·   Что такое торрент  ·   Рейтинг и ограничения

Nagoran

Корсар

154

Пост 09-Авг-2012 23:12 (спустя 2 дня 2 часа)

[Q] 

прекрасный фильм. советую абсолютно всем смотреть его понравится многим
Как включить или отключить виджет на экране «Сегодня»?
Для этого прокрутите данный экран вниз и появится соответствующая кнопка. Можно изменить порядок расположения виджетов, удалить или добавить их.
[Профиль]  [ЛС] 

CCCPBess

Шкипер

Пост 06-Ноя-2012 02:48 (спустя 2 месяца 27 дней)

[Q] 

супер спасибо за качество
[Профиль]  [ЛС] 

natatka2010

Лоцман

Пост 03-Янв-2013 17:54 (спустя 1 месяц 27 дней)

[Q] 

отличный фильм!!! посмотрела на одном дыхании!!! определила для себя в папочку лучших для себя фильмов к 10-ти дюймовому герою!
[Профиль]  [ЛС] 

Pio-23

Лоцман

Пост 04-Янв-2013 02:38 (спустя 8 часов)

[Q] 

отличный фильм - рекомендую!
[Профиль]  [ЛС] 

BayunCat

Корсар

Пост 18-Фев-2013 21:57 (спустя 1 месяц 14 дней)

[Q] 


_________________
FrEeBoOt
Пиратка рулит!
[Профиль]  [ЛС] 

Kotangens

Шкипер

251

Пост 21-Фев-2013 15:23 (спустя 2 дня 17 часов)

[Q] 

Замечательный фильм! Пересмотрел 3 раза))

_________________
Чтобы не было залётов - изучай район полётов!
[Профиль]  [ЛС] 

лесенок

Шкипер

Пост 12-Мар-2013 09:21 (спустя 18 дней)

[Q] 

[Профиль]  [ЛС] 

scorps48

Лоцман

Пост 08-Май-2013 18:14 (спустя 1 месяц 27 дней)

[Q] 

[Профиль]  [ЛС] 

arkada230573

Корсар

Пост 07-Июл-2015 20:33 (спустя 2 года 1 месяц)

[Q] 

Фильм класс! Большое спасибо!
[Профиль]  [ЛС] 

ALEN SAN

5453

Пост 06-Дек-2015 19:34 (спустя 4 месяца 29 дней)

[Q] 

Как запретить все уведомления?
Если уведомления необходимо отключить на определенный период, включите функцию «Не беспокоить» через Control Center или Настройки.
В меню Настройки -> Не беспокоить можно настроить такие параметры:
Включать режим вручную или автоматически (в определенные промежутки времени).
Блокировать уведомления на заблокированном экране или всегда.
Допускать или нет повторные вызовы.
Получать уведомления от избранных контактов или нет.
Для отключения уведомлений приложения перейдите в Настройки -> Уведомления -> (Ваше приложение) –>Разрешить уведомления.

_________________
Исправили релиз? - напишите об этом в ЛС со ссылкой на него.
Правила оформления раздач в разделе "Приложения Android
[Профиль]  [ЛС] 
Показать сообщения:    
Ответить на тему

Текущее время: Сегодня 14:06

Часовой пояс: GMT + 4



Вы не можете начинать темы
Вы не можете отвечать на сообщения
Вы не можете редактировать свои сообщения
Вы не можете удалять свои сообщения
Вы не можете голосовать в опросах
Вы не можете прикреплять файлы к сообщениям
Вы не можете скачивать файлы

Майнать ▼