Создание CUE с помощью *.ape (*.flac, *.wv) и лога

Ответить на тему
 
Автор
Сообщение

Пост 07-Сен-2012 20:51

[Q] 

AnTonyO

Корсар

Как создать CUE, если рип, которым располагаем, содержит только *.ape (*.flac, *.wv) и лог?-Вариант 1-Основной софт: DCSoft CDRCue 2004 Дополнительный софт (см. ссылки ниже): xmcd2cue, WAV Tools
Итак, разберемся, что же надо сделать:
1. Работать надо с альбомом в формате WAV, поэтому *.ape (*.flac, *.wv) сначала надо в него разжать.
2. Далее можно постараться найти готовый CUE-Sheet.
Начнем поиск с freedb.org:
- в окошечке поиска вводим исполнителя и название альбома, нажимаем Enter. Скорее всего, информация будет найдена, иногда и не в одном экземпляре, тогда после названия альбома стоят цифры 2 3 и т. д.
- необходимо найти CUE, в котором указанная продолжительность звучания совпадает с имеемым альбомом (релизом), и скачать его в формате xmcd.
Для этого надо перейти по ссылке, указанной после ids: misc / b20c3b0c, и сохранить открывшуюся страницу в формате TXT (по умолчанию).

другие источники, где можно поискать готовый CUE:
http://cuedb.net/ | http://rastodolix.ovh.org/ | http://www.regeert.nl/cuesheet/
3. Продолжительность звучания альбома можно определить, запустив CDRCue. Перетаскиваем туда WAV-файл, выбираем из меню Compute Disc Total.
4. Теперь надо как-то из формата xmcd получить нормальный CUE-файл. Для этого используем консольную программу xmcd2cue, запустив ее с именем ранее скачанного TXT-файла в качестве единственного параметра: xmcd2cue.exe filename.txt В результате получим CUE-файл с тем же именем, что у txt.
5. Открываем этот CUE в CDRCue. Делаем двойной щелчок на строке, начинающейся со слова FILE, затем в открывшемся окошке выбираем Browse и находим наш WAV. Стираем весь путь, оставляя только имя файла, и подтверждаем кнопкой ОК.
6. Строку PREGAP в 1-м треке, как правило, следует удалить. Теперь CUE готов. Для пущей уверенности можно прослушать начала всех треков, благо CDRCue дает такую возможность: нажать кнопку со значком Play, потом последовательно щелкать на строках TRACK 1, TRACK 2 и т. д.
--Вариант 2-Необходимый софт: CUE Tools1. Треки из любого формата конвертируем в WAV. Объединяем их в единый файл с помощью WAV Tools. Либо с помощью foobar2000.
2. Как найти CUE можно посмотреть в первом варианте (см. выше)
3. Запускаем ЕАС и открываем для анализа наш единый WAV (Tools->Process WAV). Затем выбираем из меню CUE Sheet -> Create New Cuesheet. появившееся практически пустое окно закрываем.
Из того же меню выбираем Generate CUE Sheet. Если в появившемся окне мы видим число треков, соответствующее количеству треков в альбоме, значит, нам повезло. Все из того же меню выбираем Save CUE Sheet.
4. Если у нас есть CUE с freedb, сравниваем его с полученным cue и убеждаемся, что времена треков примерно совпадают.
Иногда ЕАС принимает pregap перед первым треком за отдельный трек, и в CUE появляется 1 лишний трек:
TRACK 01 AUDIO
INDEX 01 00:00:00
TRACK 02 AUDIO
INDEX 01 00:00:52
TRACK 03 AUDIO
INDEX 01 02:42:50
TRACK 04 AUDIO
INDEX 01 05:49:45
TRACK 05 AUDIO
INDEX 01 11:34:54
TRACK 06 AUDIO
INDEX 01 16:00:16
TRACK 07 AUDIO
INDEX 01 20:09:69
TRACK 08 AUDIO
INDEX 01 24:24:36
Видно, что его время - 00:00, как и у первого (напоминаю, что 2 последние цифры - это фреймы). Удаляем этот трек-призрак либо еще в ЕАС, либо с помощью CDRCue
.
Показать сообщения:    
Ответить на тему

Текущее время: Сегодня 17:39

Часовой пояс: GMT + 4



Вы не можете начинать темы
Вы не можете отвечать на сообщения
Вы не можете редактировать свои сообщения
Вы не можете удалять свои сообщения
Вы не можете голосовать в опросах
Вы не можете прикреплять файлы к сообщениям
Вы не можете скачивать файлы

Майнать ▼