(RAP) G.O.O.D. Music - Cruel Summer - 2012 [FLAC, tracks+.cue, lossless]

Ответить на тему
 
Автор
Сообщение

Пост 20-Сен-2012 12:36

[Q] 

AnTonyO

Корсар

-G.O.O.D. Music / Cruel Summer-- Год издания: 2012
Страна: USA
Жанр: RAP
Продолжительность: 54:35
Лейбл издания: GOOD Music, Def Jam
Формат: FLAC
Битрейт аудио: lossless
Тип рипа: tracks+.cue
Наличие сканов в содержимом раздачи: да
______________________________________________________________________________________________________________ ________________________________________________________01. To the World (Kanye West and R. Kelly)
02. Clique (Kanye West, Jay-Z & Big Sean)
03. Mercy.1 (Kanye West, Big Sean, Pusha-T & 2 Chainz)
04. New God Flow.1 (Kanye West, Pusha-T & Ghostface Killah)
05. The Morning (Raekwon, Pusha-T, Common, 2 Chainz, Cyhi the Prynce, Kid Cudi & D'Banj)
06. Cold.1 (DJ Khaled)
07. Higher (The-Dream, Pusha-T, Ma$e & Cocaine 80s)
08. Sin City (John Legend, Travi$ Scott, Teyana Taylor, Cyhi the Prynce & Malik Yusef)
09. The One (Kanye West, Big Sean, 2 Chainz & Marsha Ambrosius)
10. Creepers (Kid Cudi)
11. Bliss (John Legend & Teyana Taylor)
12. Don't Like.1 (Kanye West, Chief Keef, Pusha-T, Big Sean & Jadakiss)
Exact Audio Copy V1.0 beta 3 from 29. August 2011
EAC extraction logfile from 17. September 2012, 13:33
Various Artists / Kanye West Presents: G.O.O.D. Music - Cruel Summer
Used drive : HL-DT-STDVDRAM GE20NU10 Adapter: 7 ID: 0
Read mode : Secure
Utilize accurate stream : Yes
Defeat audio cache : Yes
Make use of C2 pointers : No
Read offset correction : 667
Overread into Lead-In and Lead-Out : No
Fill up missing offset samples with silence : Yes
Delete leading and trailing silent blocks : No
Null samples used in CRC calculations : Yes
Used interface : Native Win32 interface for Win NT & 2000
Gap handling : Appended to previous track
Used output format : User Defined Encoder
Selected bitrate : 1024 kBit/s
Quality : High
Add ID3 tag : No
Command line compressor : C:\Program Files\Exact Audio Copy\FLAC\FLAC.EXE
Additional command line options : -6 -V -T "ARTIST=%artist%" -T "TITLE=%title%" -T "ALBUM=%albumtitle%" -T "DATE=%year%" -T "TRACKNUMBER=%tracknr%" -T "GENRE=%genre%" -T "COMMENT=%comment%" -T "BAND=%albuminterpret%" -T "ALBUMARTIST=%albuminterpret%" -T "COMPOSER=%composer%" %haslyrics%--tag-from-file=LYRICS="%lyricsfile%"%haslyrics% -T "DISCNUMBER=%cdnumber%" -T "TOTALDISCS=%totalcds%" -T "TOTALTRACKS=%numtracks%" %hascover%--picture="%coverfile%"%hascover% %source% -o %dest%
TOC of the extracted CD
Track | Start | Length | Start sector | End sector
---------------------------------------------------------
1 | 0:00.00 | 3:51.13 | 0 | 17337
2 | 3:51.13 | 4:53.40 | 17338 | 39352
3 | 8:44.53 | 5:26.27 | 39353 | 63829
4 | 14:11.05 | 5:57.29 | 63830 | 90633
5 | 20:08.34 | 4:35.07 | 90634 | 111265
6 | 24:43.41 | 3:36.22 | 111266 | 127487
7 | 28:19.63 | 4:34.37 | 127488 | 148074
8 | 32:54.25 | 4:28.06 | 148075 | 168180
9 | 37:22.31 | 5:44.52 | 168181 | 194032
10 | 43:07.08 | 3:14.24 | 194033 | 208606
11 | 46:21.32 | 3:30.08 | 208607 | 224364
12 | 49:51.40 | 4:43.56 | 224365 | 245645
Track 1
Filename D:\EACRips\Kanye West Presents GOOD Music Cruel Summer\01 - Kanye West & R. Kelly - To The World.wav
Pre-gap length 0:00:02.00
Peak level 98.8 %
Extraction speed 1.2 X
Track quality 100.0 %
Test CRC 8848BB61
Copy CRC 8848BB61
Track not present in AccurateRip database
Copy OK
Track 2
Filename D:\EACRips\Kanye West Presents GOOD Music Cruel Summer\02 - Kanye West, Jay-Z & Big Sean - Clique.wav
Peak level 98.8 %
Extraction speed 1.3 X
Track quality 100.0 %
Test CRC 16D9ACF5
Copy CRC 16D9ACF5
Track not present in AccurateRip database
Copy OK
Track 3
Filename D:\EACRips\Kanye West Presents GOOD Music Cruel Summer\03 - Kanye West, Big Sean, Pusha T & 2 Chainz - Mercy.wav
Pre-gap length 0:00:00.01
Peak level 98.8 %
Extraction speed 1.3 X
Track quality 99.9 %
Test CRC 92FB78C1
Copy CRC 92FB78C1
Track not present in AccurateRip database
Copy OK
Track 4
Filename D:\EACRips\Kanye West Presents GOOD Music Cruel Summer\04 - Kanye West, Pusha T & Ghostface Killah - New God Flow.wav
Pre-gap length 0:00:37.56
Peak level 98.8 %
Extraction speed 1.6 X
Track quality 100.0 %
Test CRC 98F41C44
Copy CRC 98F41C44
Track not present in AccurateRip database
Copy OK
Track 5
Filename D:\EACRips\Kanye West Presents GOOD Music Cruel Summer\05 - Raekwon, Pusha T, Common, 2 Chainz, Cyhi The Prynce, KiD CuDi & D'Banj - The Morning.wav
Pre-gap length 0:00:00.01
Peak level 98.9 %
Extraction speed 1.7 X
Track quality 100.0 %
Test CRC 50364C4A
Copy CRC 50364C4A
Track not present in AccurateRip database
Copy OK
Track 6
Filename D:\EACRips\Kanye West Presents GOOD Music Cruel Summer\06 - Kanye West & DJ Khaled - Cold.wav
Pre-gap length 0:00:00.01
Peak level 98.8 %
Extraction speed 1.7 X
Track quality 100.0 %
Test CRC D11157BE
Copy CRC D11157BE
Track not present in AccurateRip database
Copy OK
Track 7
Filename D:\EACRips\Kanye West Presents GOOD Music Cruel Summer\07 - The-Dream, Pusha T, Ma$e & Cocaine 80s - Higher.wav
Pre-gap length 0:00:00.01
Peak level 98.8 %
Extraction speed 1.8 X
Track quality 100.0 %
Test CRC A848CFE6
Copy CRC A848CFE6
Track not present in AccurateRip database
Copy OK
Track 8
Filename D:\EACRips\Kanye West Presents GOOD Music Cruel Summer\08 - John Legend, Travi$ Scott, Teyana Taylor, Cyhi The Prynce & Malik Yusef - Sin City.wav
Pre-gap length 0:00:00.01
Peak level 98.8 %
Extraction speed 1.9 X
Track quality 100.0 %
Test CRC 7FDCBD4E
Copy CRC 7FDCBD4E
Track not present in AccurateRip database
Copy OK
Track 9
Filename D:\EACRips\Kanye West Presents GOOD Music Cruel Summer\09 - Kanye West, Big Sean, 2 Chainz & Marsha Ambrosius - The One.wav
Pre-gap length 0:00:00.01
Peak level 98.8 %
Extraction speed 2.1 X
Track quality 100.0 %
Test CRC A385D169
Copy CRC A385D169
Track not present in AccurateRip database
Copy OK
Track 10
Filename D:\EACRips\Kanye West Presents GOOD Music Cruel Summer\10 - KiD CuDi - Creepers.wav
Pre-gap length 0:00:00.01
Peak level 98.8 %
Extraction speed 2.0 X
Track quality 100.0 %
Test CRC CC0F18F9
Copy CRC CC0F18F9
Track not present in AccurateRip database
Copy OK
Track 11
Filename D:\EACRips\Kanye West Presents GOOD Music Cruel Summer\11 - John Legend & Teyana Taylor - Bliss.wav
Pre-gap length 0:00:00.01
Peak level 98.8 %
Extraction speed 2.0 X
Track quality 100.0 %
Test CRC 492311A0
Copy CRC 492311A0
Track not present in AccurateRip database
Copy OK
Track 12
Filename D:\EACRips\Kanye West Presents GOOD Music Cruel Summer\12 - Kanye West, Chief Keef, Pusha T, Big Sean & Jadakiss - Don't Like.wav
Pre-gap length 0:00:00.01
Peak level 98.8 %
Extraction speed 2.3 X
Track quality 100.0 %
Test CRC 21BD4058
Copy CRC 21BD4058
Track not present in AccurateRip database
Copy OK
None of the tracks are present in the AccurateRip database
No errors occurred
End of status report
==== Log checksum E6828CAD1426A2A9B15FABCC523DB7F971A3EA86C229197ACB249A657C0A991F ====
REM GENRE Hip-Hop
REM DATE 2012
REM DISCID AC0CCB0C
REM COMMENT "ExactAudioCopy v1.0b3"
CATALOG 0602537118694
PERFORMER "Various Artists"
TITLE "Kanye West Presents: G.O.O.D. Music - Cruel Summer"
FILE "01 - Kanye West & R. Kelly - To The World.wav" WAVE
TRACK 01 AUDIO
TITLE "To The World"
PERFORMER "Kanye West & R. Kelly"
ISRC USUM71209864
INDEX 01 00:00:00
FILE "02 - Kanye West, Jay-Z & Big Sean - Clique.wav" WAVE
TRACK 02 AUDIO
TITLE "Clique"
PERFORMER "Kanye West, Jay-Z & Big Sean"
ISRC USUM71209867
INDEX 01 00:00:00
TRACK 03 AUDIO
TITLE "Mercy"
PERFORMER "Kanye West, Big Sean, Pusha T & 2 Chainz"
ISRC USUM71210090
INDEX 00 04:53:39
FILE "03 - Kanye West, Big Sean, Pusha T & 2 Chainz - Mercy.wav" WAVE
INDEX 01 00:00:00
TRACK 04 AUDIO
TITLE "New God Flow"
PERFORMER "Kanye West, Pusha T & Ghostface Killah"
ISRC USUM71209860
INDEX 00 04:48:60
FILE "04 - Kanye West, Pusha T & Ghostface Killah - New God Flow.wav" WAVE
INDEX 01 00:00:00
TRACK 05 AUDIO
TITLE "The Morning"
PERFORMER "Raekwon, Pusha T, Common, 2 Chainz, Cyhi The Prynce, KiD CuDi & D'Banj"
ISRC USUM71209870
INDEX 00 05:57:28
FILE "05 - Raekwon, Pusha T, Common, 2 Chainz, Cyhi The Prynce, KiD CuDi & D'Banj - The Morning.wav" WAVE
INDEX 01 00:00:00
TRACK 06 AUDIO
TITLE "Cold"
PERFORMER "Kanye West & DJ Khaled"
ISRC USUM71209873
INDEX 00 04:35:06
FILE "06 - Kanye West & DJ Khaled - Cold.wav" WAVE
INDEX 01 00:00:00
TRACK 07 AUDIO
TITLE "Higher"
PERFORMER "The-Dream, Pusha T, Ma$e & Cocaine 80s"
ISRC USUM71209876
INDEX 00 03:36:21
FILE "07 - The-Dream, Pusha T, Ma$e & Cocaine 80s - Higher.wav" WAVE
INDEX 01 00:00:00
TRACK 08 AUDIO
TITLE "Sin City"
PERFORMER "John Legend, Travi$ Scott, Teyana Taylor, Cyhi The Prynce & Malik Yusef"
ISRC USUM71209880
INDEX 00 04:34:36
FILE "08 - John Legend, Travi$ Scott, Teyana Taylor, Cyhi The Prynce & Malik Yusef - Sin City.wav" WAVE
INDEX 01 00:00:00
TRACK 09 AUDIO
TITLE "The One"
PERFORMER "Kanye West, Big Sean, 2 Chainz & Marsha Ambrosius"
ISRC USUM71209883
INDEX 00 04:28:05
FILE "09 - Kanye West, Big Sean, 2 Chainz & Marsha Ambrosius - The One.wav" WAVE
INDEX 01 00:00:00
TRACK 10 AUDIO
TITLE "Creepers"
PERFORMER "KiD CuDi"
ISRC USUM71209861
INDEX 00 05:44:51
FILE "10 - KiD CuDi - Creepers.wav" WAVE
INDEX 01 00:00:00
TRACK 11 AUDIO
TITLE "Bliss"
PERFORMER "John Legend & Teyana Taylor"
ISRC USUM71209899
INDEX 00 03:14:23
FILE "11 - John Legend & Teyana Taylor - Bliss.wav" WAVE
INDEX 01 00:00:00
TRACK 12 AUDIO
TITLE "Don't Like"
PERFORMER "Kanye West, Chief Keef, Pusha T, Big Sean & Jadakiss"
ISRC USUM71209911
INDEX 00 03:30:07
FILE "12 - Kanye West, Chief Keef, Pusha T, Big Sean & Jadakiss - Don't Like.wav" WAVE
INDEX 01 00:00:00
-------------------------------------
Download / Скачать

Хотите скачать бесплатно? Зарегистрируйтесь на сайте (ссылка на регистрацию). Pirat.ca - самый быстрый торрент трекер в рунете!

Как скачивать  ·   Что такое торрент  ·   Рейтинг и ограничения

Показать сообщения:    
Ответить на тему

Текущее время: Сегодня 17:43

Часовой пояс: GMT + 4



Вы не можете начинать темы
Вы не можете отвечать на сообщения
Вы не можете редактировать свои сообщения
Вы не можете удалять свои сообщения
Вы не можете голосовать в опросах
Вы не можете прикреплять файлы к сообщениям
Вы не можете скачивать файлы

Майнать ▼