Уважаемый Гость!
Вы можете поддержать проект и зарегистрироваться у наших партнеров - онлайн-стратегия MyLands. При регистрации в игре Вы получите код, который сможете активировать после регистрации на pirat.ca и получить 1000 дублонов.

Ваш код:
e8dfa7b6c42ab8d96c60065b5847c5d2c34a0b88
 
     

Джеймс Бонд: Квант Милосердия / Quantum of Solace (Марк Форстер) [2008, боевик, триллер, приключения, BDRip, 720p] (Dub)

Ответить на тему
 
Автор
Сообщение

Пост 02-Янв-2012 21:17

[Q] 

goxakrauter

Джеймс Бонд: Квант Милосердия / Quantum of Solace- Год выпуска: 2008
Страна: США, Великобритания
Жанр: боевик, триллер, приключения
Продолжительность: 01:46:14
Перевод : Профессиональный (полное дублирование)-Режиссёр: Марк Форстер / Marc Forster
В ролях: Дэниэл Крэйг, Ольга Куриленко, Матье Амальрик, Джуди Денч, Джанкарло Джаннини, Джемма Артертон, Джеффри Райт, Дэвид Харбор, Джеспер Кристенсен, Анатоль Таубман-Описание: После предательства Веспер, агент 007 борется с желанием превратить последнее задание в личную вендетту. В поисках истины, Бонд и М допрашивают Мистера Уайта, от которого узнают, что шантажировавшая Веспер Организация намного сложнее и опаснее, чем можно было подумать. Судмедэксперты Mi6 устанавливают связь Веспер с анонимным банковским счётом на Гаити. Там Бонд случайно знакомится с боевой девушкой Камиллой, которая тоже жаждет мести. Через Камиллу Бонд выходит на Доминика Грина, жестокого бизнесмена и не последнего человека в Организации. Побывав в Австрии, Италии и Южной Америке, Бонд узнает о совместном заговоре Грина и генерала Медрано с целью установления контроля над мировыми запасами нефти. Используя возможности Организации и верных ему людей в ЦРУ и британской разведке, Грин обещает генералу свергнуть существующий режим в вымышленной латиноамериканской стране, в обмен на, казалось бы, пустынный участок земли. Бонд прибегает к помощи старых друзей, чтобы установить истину. Чем ближе к установлению личности человека, толкнувшего Веспер на предательство, тем сложнее Бонду быть на шаг впереди ЦРУ, террористов и даже М, чтобы раскрыть злодейский план Грина и остановить его Организацию.-Качество: BDRip
Формат: *.mp4
Видео кодек: H.264
аудио кодек: ААС
Разрешение: 1280 x 528
Видео: MPEG4 Video (H264) 1280x528 23.98fps
Аудио: AAC 48000Hz 6ch 158 Kbps
Вшитая обложка: есть
Доп. теги (режиссёр, актёры и т.д.): прописаны-
General
Complete name : M:\ipod\James Bond_Quantum of Solace.2008.BD.Rip.720p.h264.mp4
Format : MPEG-4
Format profile : Base Media
Codec ID : isom
File size : 3.29 GiB
Duration : 1h 46mn
Overall bit rate : 4 435 Kbps
Movie name : James Bond 'Quantum of Solace'
Performer : Марк Форстер
Genre : Crime
Encoded date : 2008
Tagged date : UTC 2011-01-16 14:12:05
Cover : Yes
iTunEXTC : mpaa|PG-13|300|
iTunMOVI : <?xml version="1.0" encoding="UTF-8"?> / <!DOCTYPE plist PUBLIC "-//Apple//DTD PLIST 1.0//EN" "http://www.apple.com/DTDs/PropertyList-1.0.dtd"> / <plist version="1.0"> / <dict> / <key>directors</key> / <array> / <dict> / <key>name</key> / <string>Марк Форстер</string> / </dict> / </array> / <key>producers</key> / <array> / <dict> / <key>name</key> / <string>Барбара Брокколи</string> / </dict> / <dict> / <key>name</key> / <string>Каллум МакДугалл</string> / </dict> / <dict> / <key>name</key> / <string>Энтони Вайе</string> / </dict> / </array> / <key>screenwriters</key> / <array> / <dict> / <key>name</key> / <string>Пол Хаггис</string> / </dict> / <dict> / <key>name</key> / <string>Нил Пёрвис</string> / </dict> / <dict> / <key>name</key> / <string>Роберт Уэйд</string> / </dict> / </array> / </dict> / </plist>
ldes : После предательства Веспер, агент 007 борется с желанием превратить последнее задание в личную вендетту. В поисках истины, Бонд и М допрашивают Мистера Уайта, от которого узнают, что шантажировавшая Веспер Организация намного сложнее и опаснее, чем можно было подумать. / / Судмедэксперты Mi6 устанавливают связь Веспер с анонимным банковским счётом на Гаити. Там Бонд случайно знакомится с боевой девушкой Камиллой, которая тоже жаждет мести. Через Камиллу Бонд выходит на Доминика Грина, жестокого бизнесмена и не последнего человека в Организации. / / Побывав в Австрии, Италии и Южной Америке, Бонд узнает о совместном заговоре Грина и генерала Медрано с целью установления контроля над мировыми запасами нефти. Используя возможности Организации и верных ему людей в ЦРУ и британской разведке, Грин обещает генералу свергнуть существующий режим в латиноамериканской стране, в обмен на, казалось бы, пустынный участок земли. / / Бонд прибегает к помощи старых друзей, чтобы установить истину. Чем ближе к установлению личности человека, толкнувшего Веспер на предательство, тем сложнее Бонду быть на шаг впереди ЦРУ, террористов и даже М, чтобы раскрыть злодейский план Грина и остановить его Организацию.
hdvd : 1
stik : 9
Video
ID : 1
Format : AVC
Format/Info : Advanced Video Codec
Format profile : [email protected]
Format settings, CABAC : Yes
Format settings, ReFrames : 2 frames
Codec ID : avc1
Codec ID/Info : Advanced Video Coding
Duration : 1h 46mn
Bit rate mode : Variable
Bit rate : 4 271 Kbps
Maximum bit rate : 18.5 Mbps
Width : 1 280 pixels
Height : 528 pixels
Display aspect ratio : 2.40:1
Frame rate mode : Constant
Frame rate : 23.976 fps
Color space : YUV
Chroma subsampling : 4:2:0
Bit depth : 8 bits
Scan type : Progressive
Bits/(Pixel*Frame) : 0.264
Stream size : 3.17 GiB (96%)
Title : Imported with GPAC 0.4.6-DEV (build 1)
Writing library : x264 core 92 r1510 33d382a
Encoding settings : cabac=1 / ref=2 / deblock=1:-2:-1 / analyse=0x3:0x111 / me=umh / subme=9 / psy=1 / psy_rd=1.00:0.80 / mixed_ref=1 / me_range=24 / chroma_me=1 / trellis=2 / 8x8dct=1 / cqm=0 / deadzone=21,11 / fast_pskip=1 / chroma_qp_offset=-4 / threads=12 / sliced_threads=0 / nr=0 / decimate=1 / interlaced=0 / constrained_intra=0 / bframes=3 / b_pyramid=0 / b_adapt=0 / b_bias=0 / direct=1 / wpredb=1 / wpredp=2 / keyint=250 / keyint_min=25 / scenecut=40 / intra_refresh=0 / rc_lookahead=40 / rc=crf / mbtree=1 / crf=20.0 / qcomp=0.60 / qpmin=10 / qpmax=51 / qpstep=4 / ip_ratio=1.40 / aq=1:1.00
Encoded date : UTC 2011-01-15 13:33:43
Tagged date : UTC 2011-01-15 13:35:12
Audio
ID : 2
Format : AAC
Format/Info : Advanced Audio Codec
Format profile : LC
Codec ID : 40
Duration : 1h 45mn
Bit rate mode : Variable
Bit rate : 158 Kbps
Maximum bit rate : 231 Kbps
Channel(s) : 6 channels
Channel positions : Front: L C R, Side: L R, LFE
Sampling rate : 48.0 KHz
Compression mode : Lossy
Stream size : 120 MiB (4%)
Encoded date : UTC 2011-01-15 13:35:09
Tagged date : UTC 2011-01-15 13:35:12



-Релиз предназначен только для воспроизведения на iPhone 4, iPod Touch 4g и iPad
На более ранних поколениях девайсов Apple он не воспроизведётся!

По отзывам пользователей, фильм идет и на iPhone 3gs, но сам лично не проверял.-Описание Retina Display-Чтобы не было вопросов, объясняю: iPhone 4, iPod Touch 4 и iPad поддерживают видео H.264 с частотой развёртки до 720p, т.е. до 1280 x 720 пикселей.ссылка
Download / Скачать

Хотите скачать бесплатно? Зарегистрируйтесь на сайте (ссылка на регистрацию). Pirat.ca - самый быстрый торрент трекер в рунете!

Как скачивать  ·   Что такое торрент  ·   Рейтинг и ограничения

Suncat

Корсар

Пост 22-Янв-2012 17:56 (спустя 19 дней)

[Q] 

Дэниэл Крэйг - лучший "Бонд"!
[Профиль]  [ЛС] 

gves007

Морской Волк

Пост 26-Окт-2012 18:57 (спустя 9 месяцев 4 дня)

[Q] 

Спасибо за фильм

_________________
Пиво - величайшее изобретение. Колесо, конечно, тоже ничего, но колесо с рыбой - все-таки не то…
[Профиль]  [ЛС] 
Показать сообщения:    
Ответить на тему

Текущее время: Сегодня 21:33

Часовой пояс: GMT + 4



Вы не можете начинать темы
Вы не можете отвечать на сообщения
Вы не можете редактировать свои сообщения
Вы не можете удалять свои сообщения
Вы не можете голосовать в опросах
Вы не можете прикреплять файлы к сообщениям
Вы не можете скачивать файлы

▼ Вниз