ML
     
  Уважаемый Гость!
Вы можете поддержать проект и зарегистрироваться у наших партнеров - онлайн-стратегия MyLands. При регистрации в игре Вы получите код, который сможете активировать после регистрации на pirat.ca и получить 1000 дублонов.

Ваш код:
8ed29e3f95e5dbb51a7a24bf3b17f86ea3a830a6
 
     

Петля времени / Looper (Райан Джонсон / Rian Johnson) [2012 г., Фантастика, боевик, триллер, DVDRip] Dub [Лицензия]

Страницы :  1, 2, 3, 4, 5, 6, 7, 8, 9  След.

Ответить на тему
 
Автор
Сообщение

Пост 15-Ноя-2012 00:53

[Q] 

AGKRus36

-Петля времени / Looper-«В плену будущего. В плену прошлого»- Производство: США, Китай / DMG Entertainment, Endgame Entertainment, FilmDistrict
Год выпуска: 2012 г.
Жанр: Фантастика, боевик, триллер
Продолжительность: 01:53:45
Мировая премьера: 6 сентября 2012
Российская премьера: 27 сентября 2012, «Top Film Distribution»
Дата выхода DVD: 29 ноября 2012, «Новый Диск», «New Dream media»
Перевод: Профессиональный (полное дублирование) (Лицензия)
Режиссер: Райан Джонсон / Rian Johnson-В ролях: Брюс Уиллис, Джозеф Гордон-Левитт, Эмили Блант, Пайпер Перабо, Пол Дано, Гаррет Диллахант, Джефф Дэниелс, Трейси Томс, Пирс Гэнон, Ан Нуу Нгуйен и др.-Описание: В недалеком будущем, где стали возможны путешествия во времени, некая корпорация убирает нежелательных людей, отправляя их в прошлое в пластиковых пакетах. Задача принимающей стороны — всадить жертве пулю в голову, стерев тем самым несчастного из истории. Все идет гладко до тех пор, пока главный герой не распаковывает очередной пакет, обнаруживая в нем… самого себя из будущего.-
Качество видео: DVDRip
Формат видео: AVI
Видео кодек: XviD
Аудио кодек: AC3
Видео: 1268 kb/s, 720x304, 25.000 fps
Аудио: AC3, 448 kb/s (6 ch), 48.0 KHz
Cубтитры: отсутствуют
D:\Фильмы\Петля времени\Petlya.vremeni.2012.D.DVDRip.avi
General
Complete name : D:\Фильмы\Петля времени\Petlya.vremeni.2012.D.DVDRip.avi
Format : AVI
Format/Info : Audio Video Interleave
File size : 1.37 GiB
Duration : 1h 53mn
Overall bit rate : 1 726 Kbps
Writing application : VirtualDubMod 1.5.10.2 (build 2542/release)
Writing library : VirtualDubMod build 2542/release
Video #0
ID : 0
Format : MPEG-4 Visual
Format profile : Advanced [email protected]
Format settings, BVOP : Yes
Format settings, QPel : No
Format settings, GMC : No warppoints
Format settings, Matrix : Default (MPEG)
Codec ID : XVID
Codec ID/Hint : XviD
Duration : 1h 53mn
Bit rate : 1 268 Kbps
Width : 720 pixels
Height : 304 pixels
Display aspect ratio : 2.35:1
Frame rate : 25.000 fps
Resolution : 8 bits
Colorimetry : 4:2:0
Scan type : Progressive
Bits/(Pixel*Frame) : 0.232
Stream size : 1.01 GiB (73%)
Writing library : XviD 1.2.1 (UTC 2008-12-04)
Audio #1
ID : 1
Format : AC-3
Format/Info : Audio Coding 3
Codec ID : 2000
Duration : 1h 53mn
Bit rate mode : Constant
Bit rate : 448 Kbps
Channel(s) : 6 channels
Channel positions : Front: L C R, Surround: L R, LFE
Sampling rate : 48.0 KHz
Stream size : 365 MiB (26%)
Alignment : Split accross interleaves
Interleave, duration : 40 ms (1.00 video frame)
Interleave, preload duration : 500 ms
Download / Скачать

Хотите скачать бесплатно? Зарегистрируйтесь на сайте (ссылка на регистрацию). Pirat.ca - самый быстрый торрент трекер в рунете!

Как скачивать  ·   Что такое торрент  ·   Рейтинг и ограничения



Последний раз редактировалось: AGKRus36 (2012-11-15 01:23), всего редактировалось 2 раз(а)

Пост 15-Ноя-2012 01:30 (спустя 36 минут)

Топик был перенесен из форума Зарубежное Кино (Трюм) в форум Новинки (HD|DVD|BD|TV|SAT|PDTV| - Rips)

erchine
 

Processor

Корсар

68

Пост 15-Ноя-2012 01:37 (спустя 43 минуты)

[Q] 

[Профиль]  [ЛС] 

AGKRus36 ®

37928

Пост 15-Ноя-2012 02:05 (спустя 27 минут)

[Q] 

Фильм бомба ay

_________________
Мои раздачи
[Профиль]  [ЛС] 

DesperadoAV

Шкипер

Пост 15-Ноя-2012 02:52 (спустя 47 минут)

[Q] 

Посмотрим)
[Профиль]  [ЛС] 

Olegicus

Шкипер

Пост 15-Ноя-2012 05:16 (спустя 2 часа 23 минуты)

[Q] 

[Профиль]  [ЛС] 

valeriy_palych

Морской Волк

Пост 15-Ноя-2012 10:48 (спустя 5 часов)

[Q] 

Наконец дождался в нормальном качестве!
[Профиль]  [ЛС] 

xxxLOGICxxx

Корсар

Пост 15-Ноя-2012 11:27 (спустя 38 минут)

[Q] 

[Профиль]  [ЛС] 

Steel15

Морской Волк

Пост 15-Ноя-2012 14:53 (спустя 3 часа)

[Q] 

[Профиль]  [ЛС] 

badi74

Корсар

Пост 15-Ноя-2012 15:09 (спустя 16 минут)

[Q] 

[Профиль]  [ЛС] 

jesus-w

Корсар

Пост 15-Ноя-2012 17:42 (спустя 2 часа 33 минуты)

[Q] 

[Профиль]  [ЛС] 

infiniti-r

Корсар

Пост 15-Ноя-2012 18:20 (спустя 37 минут)

[Q] 

[Профиль]  [ЛС] 

Gremlin_88

Лоцман

Пост 15-Ноя-2012 18:48 (спустя 28 минут)

[Q] 

почему на трекере нету рипов на 700mb ?
за фильм спасибо )
[Профиль]  [ЛС] 

мыкола

Шкипер

Пост 15-Ноя-2012 19:09 (спустя 21 минута)

[Q] 

Большое спасибо!!! Дождались.
[Профиль]  [ЛС] 

gamm1beer

Морской Волк

Пост 15-Ноя-2012 19:25 (спустя 15 минут)

[Q] 

О!!! круто круто круто - co

_________________
[Профиль]  [ЛС] 

cssergey

Корсар

Пост 15-Ноя-2012 19:32 (спустя 6 минут)

[Q] 

норм кино
[Профиль]  [ЛС] 

g2418

Штурман

Пост 15-Ноя-2012 19:51 (спустя 18 минут)

[Q] 

спасибо!!!
[Профиль]  [ЛС] 

bearcub5

Штурман

Пост 15-Ноя-2012 19:57 (спустя 5 минут)

[Q] 

Дождался, спасибо.
[Профиль]  [ЛС] 

мек

Морской Волк

Пост 15-Ноя-2012 20:14 (спустя 17 минут)

[Q] 

[Профиль]  [ЛС] 

butyas

Корсар

Пост 15-Ноя-2012 20:41 (спустя 27 минут)

[Q] 

почему на трекере нету рипов на 700mb ?за фильм спасибо )
ЭТО СЕЙЧАС НЕ АКТУАЛЬНО
[Профиль]  [ЛС] 

Amon

Корсар

Пост 15-Ноя-2012 20:43 (спустя 1 минута)

[Q] 

[Профиль]  [ЛС] 

odyssey123

Флибустьер

Пост 15-Ноя-2012 20:54 (спустя 11 минут)

[Q] 

[Профиль]  [ЛС] 

Walvater

Морской Волк

Пост 15-Ноя-2012 21:04 (спустя 10 минут)

[Q] 

как по мне, так лучше бы все рипы были гигов по 5.
[Профиль]  [ЛС] 

maaximkaa

Корсар

Пост 15-Ноя-2012 21:09 (спустя 4 минуты)

[Q] 

спасибо ждал
[Профиль]  [ЛС] 

butin.peter

Штурман

Пост 15-Ноя-2012 21:22 (спустя 13 минут)

[Q] 

Хороший фильм!
[Профиль]  [ЛС] 

Pirat

Шкипер

Пост 15-Ноя-2012 21:36 (спустя 13 минут)

[Q] 

спасибо!
[Профиль]  [ЛС] 

got70

Легенда

755

Пост 15-Ноя-2012 22:37 (спустя 1 час 1 минута)

[Q] 


_________________
Добро непременно победит зло!Непременно...Затем поставит на колени,и зверски УБЬЁТ!
[Профиль]  [ЛС] 

StanLP

Лоцман

Пост 15-Ноя-2012 22:40 (спустя 2 минуты)

[Q] 

Большое спасибо !!!
На рутрекере его еще нет да и если будет там закроют скорее всего )))
[Профиль]  [ЛС] 

Helgi

Морской Волк

Пост 15-Ноя-2012 23:05 (спустя 25 минут)

[Q] 

262517
почему на трекере нету рипов на 700mb ?за фильм спасибо )
ЭТО СЕЙЧАС НЕ АКТУАЛЬНО
почему не актуально? Я бы на ипадике засмотрел бы и 700 метровый, это же не Терминатор!
[Профиль]  [ЛС] 

kostua005

Шкипер

Пост 15-Ноя-2012 23:28 (спустя 22 минуты)

[Q] 

[Профиль]  [ЛС] 
Показать сообщения:    
Ответить на тему

Текущее время: Сегодня 00:43

Часовой пояс: GMT + 4



Вы не можете начинать темы
Вы не можете отвечать на сообщения
Вы не можете редактировать свои сообщения
Вы не можете удалять свои сообщения
Вы не можете голосовать в опросах
Вы не можете прикреплять файлы к сообщениям
Вы не можете скачивать файлы

▼ Вниз