Далёкие берега / Distant Shores [2011 г.] (Документальный) [SATRip] (VO) [R.G. DOCpiratTV]

Ответить на тему
 
Автор
Сообщение

Пост 02-Ноя-2011 01:31

[Q] 

UcrusPazzo

Далёкие берега / Distant Shores -Год выпуска: 2011
Мировая премьера: 28:06:2011
Производство: Великобритания Travel Channel
Жанр: Документальный
Продолжительность: 00:26:29
Перевод: Профессиональный, одноголосый(закадровый)-Описание: Путешествие по внутренним водам Швеции. Через Трольхетенский канал в немецкий порт Киль.-Источник/Качество: SATRip
Формат: AVI
Видео кодек: XviD
Аудио кодек: MP3
Видео: 720x576 (1.25:1), 25 fps, XviD build 50 ~2067 kbps avg, 0.20 bit/pixel
Аудио: 44.100 kHz, MPEG Layer 3, 2 ch, ~128.00 kbps avg
Авторы рипа:
Travel Channel – ведущая международная телевизионная вещательная компания, функционирующая 24 часа в сутки на 18 языках в Европе, на Ближнем Востоке, в Африке, Азии и Тихоокеанском регионе. Travel Channel работает под управлением Travel Channel International Limited (TCI) - независимой компании с штаб-квартирой в Лондоне. Соединенном Королеве.
Запущенная в 1994 году, компания Travel Channel International Limited использует вещательные каналы на различных 20 спутниковых частота х, и к нему подключены более 700 кабельных и спутниковых операторов, а также операторов IP телевидения.
Компания производит и вводит в действие оригинальные телепрограммы во всем мире.
Канал Travel Channel даст практический совет, как выбрать и спланировать Ваш отпуск, а также предоставит возможность не выходя из дома посетить самые удивительные уголки земного шара в сопровождении наших ведущих.
Общее
Формат : AVI
Формат/Информация : Audio Video Interleave
Размер файла : 418 Мбайт
Продолжительность : 26 м.
Общий поток : 2208 Кбит/сек
Программа кодирования : MEncoder SVN-r30881(20100311-gcc4.3.3)
Библиотека кодирования : MPlayer
Видео
Идентификатор : 0
Формат : MPEG-4 Visual
Профиль формата : Advanced [email protected]
Параметр BVOP формата : 2
Параметр QPel формата : Нет
Параметр GMC формата : Без точки перехода
Параметр матрицы формата : Default (H.263)
Идентификатор кодека : XVID
Идентификатор кодека/Подсказка : XviD
Продолжительность : 26 м.
Битрейт : 2068 Кбит/сек
Ширина : 720 пикселей
Высота : 576 пикселей
Соотношение сторон : 4:3
Частота кадров : 25,000 кадров/сек
Стандарт вещания : PAL
Цветовое пространство : YUV
Субдискретизация насыщенности : 4:2:0
Битовая глубина : 8 бит
Тип развёртки : Прогрессивная
Метод сжатия : С потерями
Бит/(Пиксели*Кадры) : 0.199
Размер потока : 392 Мбайт (94%)
Библиотека кодирования : XviD 1.2.1 (UTC 2008-12-04)
Аудио
Идентификатор : 1
Формат : MPEG Audio
Версия формата : Version 1
Профиль формата : Layer 3
Режим : Joint stereo
Расширение режима : MS Stereo
Идентификатор кодека : 55
Идентификатор кодека/Подсказка : MP3
Продолжительность : 26 м.
Вид битрейта : Постоянный
Битрейт : 128 Кбит/сек
Каналы : 2 канала
Частота : 44,1 КГц
Метод сжатия : С потерями
Задержка видео : 80 мс.
Размер потока : 24,2 Мбайт (6%)
Выравнивание : Соединение по промежуткам
Продолжительность промежутка : 26 мс. (0,65 видеокадр)
Время предзагрузки промежутка : 522 мс.


Download / Скачать

Хотите скачать бесплатно? Зарегистрируйтесь на сайте (ссылка на регистрацию). Pirat.ca - самый быстрый торрент трекер в рунете!

Как скачивать  ·   Что такое торрент  ·   Рейтинг и ограничения



Последний раз редактировалось: UcrusPazzo (2011-12-10 22:49), всего редактировалось 2 раз(а)

hroomik

Лоцман

Пост 05-Ноя-2011 03:40 (спустя 3 дня)

[Q] 

Спасибо!
[Профиль]  [ЛС] 

sorrr

Корсар

318

Пост 07-Дек-2011 09:54 (спустя 1 месяц 2 дня)

[Q] 

Забираю!
Помогу с раздачей.

_________________
Подпись отключена за нарушение правил форума
[Профиль]  [ЛС] 

OLEG58

Пост 13-Дек-2011 17:31 (спустя 6 дней)

[Q] 

C 24 июля жду продолжение. Скоро порадуете?
[Профиль]  [ЛС] 

me14

1012

Пост 17-Мар-2012 21:15 (спустя 3 месяца 4 дня)

[Q] 


_________________
Если вы все еще не забанены - это не ваша заслуга, а модераторская недоработка.
[Профиль]  [ЛС] 

PeterMoon

Штурман

Пост 30-Дек-2012 16:50 (спустя 9 месяцев 12 дней)

[Q] 

Супер !
[Профиль]  [ЛС] 
Показать сообщения:    
Ответить на тему

Текущее время: Сегодня 06:32

Часовой пояс: GMT + 4



Вы не можете начинать темы
Вы не можете отвечать на сообщения
Вы не можете редактировать свои сообщения
Вы не можете удалять свои сообщения
Вы не можете голосовать в опросах
Вы не можете прикреплять файлы к сообщениям
Вы не можете скачивать файлы

Майнать ▼