Тёмные силы (Федор Стуков) [2007 г., Документальный, SATRip] [R.G. DOCpiratTV]

Ответить на тему
 
Автор
Сообщение

Пост 28-Ноя-2011 15:05

[Q] 

Степаныч

Тёмные силы
Год выпуска: 2007
Производство: Россия РЕН ТВ
Жанр: Документальный
Продолжительность: 00:39:57
Перевод: Не требуется
Режиссер: Федор Стуков
Описание: На Руси всегда почитали доброго хозяина Домового и не любили нечисть - каких-то невидимых существ, которые якобы окружают людей. Вот лишь некоторые из них: Анчутки - нечистые духи у славян, бесы, водяные, черти. Часто Анчутку изображают с гусиными пятками и пятачком.Вурдалаки - оборотни, т.е. люди, обладающие сверхъестественными способностями превращаться в диких зверей и подобно вампирам убивать всё живое, высасывая кровь; Злыдни - духи, обитающие в доме. Могут вселиться в человека, особенно на старости лет. Часто оборачиваются маленьким ребёнком; Водяные - хозяева вод. Водяные пасут на дне рек и озёр стада своих коров - сомов, карпов, лещей и прочей рыбы. Командуют Русалками, Ундинами и прочими водными жителями. Иногда Водяные любят побаловаться и затащить на дно какого-нибудь зазевавшегося человека, чтобы он их развлекал. Утопленники, кстати, тоже ходят в услужении у Водяных. Водяного представляли в виде голого, обрюзшего старика, пучеглазого, с рыбьим хвостом; Китоврасы - образ сказочного чудовища славян, отождествляемый с греческим Кентавром; Шишиги - злобная нечисть у славян. Если живёт в лесу, то нападает на случайно забредших людей, чтобы потом обгладать их косточки. По ночам любят шуметь и колобродить. Верлиоки - сказочные чудовища высокого роста и одноглазые, страшно ухмыляющиеся, с щетиной на голове, обитающие в глухом лесу, разрушители и истребители всего живого и многие другие... Что это за таинственные существа? Есть ли они на самом деле? А если есть, то какова их природа? Где они обитают? На эти вопросы ответит фильм. Мы вспомним забытые русские сказки, поговорим с теми, кому приходилось сталкиваться с русалками, водяными, лешими, обратимся к ученым.
Источник/Качество: SATRip
Формат: AVI
Видео кодек: DivX
Аудио кодек: MP3
Видео: MPEG4, DivX 5, 720x400 (16/9), 25.000 fps, 2 568 Kbps (0.357 bit/pixel)
Аудио: MP3, 48.0 KHz, 2 ch, 192 Kbps, CBR
Субтитры: Украинские
Релиз подготовлен
Формат : DivX
Формат/Информация : Hack of AVI
Размер файла : 792 Мбайт
Продолжительность : 39 м.
Общий поток : 2770 Кбит/сек
Видео
Идентификатор : 0
Формат : MPEG-4 Visual
Параметр BVOP формата : Нет
Параметр QPel формата : Нет
Параметр GMC формата : Без точки перехода
Параметр матрицы формата : Default (H.263)
Идентификатор кодека : DX50
Идентификатор кодека/Подсказка : DivX 5
Продолжительность : 39 м.
Битрейт : 2568 Кбит/сек
Ширина : 720 пикс.
Высота : 400 пикс.
Соотношение сторон : 16:9
Частота кадров : 25,000 кадр/сек
Цветовое пространство : YUV
Подвыборка цветности : 4:2:0
Битовая глубина : 8 бит
Тип развёртки : Прогрессивная
Метод сжатия : С потерями
Бит/(Пиксели*Кадры) : 0.357
Размер потока : 734 Мбайт (93%)
Заголовок : Video
Библиотека кодирования : DivX 6.6.1.4
Аудио
Идентификатор : 1
Формат : MPEG Audio
Версия формата : Version 1
Профиль формата : Layer 3
Режим : Joint stereo
Расширение режима : MS Stereo
Идентификатор кодека : 55
Идентификатор кодека/Подсказка : MP3
Продолжительность : 39 м.
Вид битрейта : Постоянный
Битрейт : 192 Кбит/сек
Канал(ы) : 2 канала(ов)
Частота : 48,0 КГц
Метод сжатия : С потерями
Размер потока : 54,9 Мбайт (7%)
Выравнивание : Разделение по промежуткам
Продолжительность промежутка : 40 мс. (1,00 видеокадр)
Время предзагрузки промежутка : 500 ms
Заголовок : Audio
Библиотека кодирования : LAME3.96


Download / Скачать

Хотите скачать бесплатно? Зарегистрируйтесь на сайте (ссылка на регистрацию). Pirat.ca - самый быстрый торрент трекер в рунете!

Как скачивать  ·   Что такое торрент  ·   Рейтинг и ограничения

PeterMoon

Штурман

Пост 30-Дек-2012 16:55 (спустя 1 год 1 месяц)

[Q] 

Супер !!
[Профиль]  [ЛС] 
Показать сообщения:    
Ответить на тему

Текущее время: Сегодня 21:06

Часовой пояс: GMT + 4



Вы не можете начинать темы
Вы не можете отвечать на сообщения
Вы не можете редактировать свои сообщения
Вы не можете удалять свои сообщения
Вы не можете голосовать в опросах
Вы не можете прикреплять файлы к сообщениям
Вы не можете скачивать файлы

Майнать ▼