Человек будущего. Секретный эксперимент [2009 г., Документальный, SATRip][ R.G. DOCpiratTV]

Ответить на тему
 
Автор
Сообщение

Пост 12-Дек-2011 19:43

[Q] 

Степаныч

Человек будущего. Секретный эксперимент
Год выпуска: 2009
Производство: Россия Рен ТВ
Режиссёр: Елена Гришина
Жанр: Документальный
Продолжительность: 00:41:28
Описание: Сверхспособности - результат случайной мутации генов или намеренных усилий? Известны люди, которые исцеляют словом, предчувствуют катастрофы, видят заболевания внутренних органов, имеют сверхпамять и гениальную интуицию. Пройдет несколько поколений, и такими будем мы все?..
Источник/Качество: SATRip
Формат: AVI
Видео кодек: DivX
Аудио кодек: MP3
Видео: MPEG4, DivX 5, 720x540 (4/3), 25.000 fps, 2 998 Kbps (0.308 bit/pixel)
Аудио: MP3, 48.0 KHz, 2 ch, 192 Kbps, CBR
Субтитры: Украинские
Релиз подготовлен
Формат : DivX
Формат/Информация : Hack of AVI
Размер файла : 949 Мбайт
Продолжительность : 41 м.
Общий поток : 3200 Кбит/сек
Видео
Идентификатор : 0
Формат : MPEG-4 Visual
Параметр BVOP формата : Нет
Параметр QPel формата : Нет
Параметр GMC формата : Без точки перехода
Параметр матрицы формата : Default (H.263)
Идентификатор кодека : DX50
Идентификатор кодека/Подсказка : DivX 5
Продолжительность : 41 м.
Битрейт : 2998 Кбит/сек
Ширина : 720 пикс.
Высота : 540 пикс.
Соотношение сторон : 4:3
Частота кадров : 25,000 кадр/сек
Цветовое пространство : YUV
Подвыборка цветности : 4:2:0
Битовая глубина : 8 бит
Тип развёртки : Прогрессивная
Метод сжатия : С потерями
Бит/(Пиксели*Кадры) : 0.308
Размер потока : 889 Мбайт (94%)
Заголовок : Video
Библиотека кодирования : DivX 6.6.1.4
Аудио
Идентификатор : 1
Формат : MPEG Audio
Версия формата : Version 1
Профиль формата : Layer 3
Режим : Joint stereo
Расширение режима : MS Stereo
Идентификатор кодека : 55
Идентификатор кодека/Подсказка : MP3
Продолжительность : 41 м.
Вид битрейта : Постоянный
Битрейт : 192 Кбит/сек
Канал(ы) : 2 канала(ов)
Частота : 48,0 КГц
Метод сжатия : С потерями
Размер потока : 56,9 Мбайт (6%)
Выравнивание : Разделение по промежуткам
Продолжительность промежутка : 40 мс. (1,00 видеокадр)
Время предзагрузки промежутка : 500 ms
Заголовок : Audio
Библиотека кодирования : LAME3.96


Download / Скачать

Хотите скачать бесплатно? Зарегистрируйтесь на сайте (ссылка на регистрацию). Pirat.ca - самый быстрый торрент трекер в рунете!

Как скачивать  ·   Что такое торрент  ·   Рейтинг и ограничения

abcxyz

Штурман

Пост 16-Дек-2011 04:09 (спустя 3 дня)

[Q] 

Степаныч, когда продолжится раздача?
[Профиль]  [ЛС] 

me14

1012

Пост 17-Мар-2012 21:14 (спустя 3 месяца 1 день)

[Q] 


_________________
Если вы все еще не забанены - это не ваша заслуга, а модераторская недоработка.
[Профиль]  [ЛС] 

PeterMoon

Штурман

Пост 30-Дек-2012 17:29 (спустя 9 месяцев 12 дней)

[Q] 

Супер!!!
[Профиль]  [ЛС] 
Показать сообщения:    
Ответить на тему

Текущее время: Сегодня 15:56

Часовой пояс: GMT + 4



Вы не можете начинать темы
Вы не можете отвечать на сообщения
Вы не можете редактировать свои сообщения
Вы не можете удалять свои сообщения
Вы не можете голосовать в опросах
Вы не можете прикреплять файлы к сообщениям
Вы не можете скачивать файлы

Майнать ▼