Двойной теракт в Норвегии (Спец. выпуск канала "Россия 24") [2011 г.] [SATRip] [R.G. DOCpiratTV]

Ответить на тему
 
Автор
Сообщение

Пост 29-Окт-2011 21:10

[Q] 

UcrusPazzo

Двойной теракт в Норвегии -Год выпуска: 2011
Производство: Россия
Продолжительность: 00:15:32-Описание: Двойной теракт потряс столицу Норвегии в пятницу, 22 июля. В результате взрыва в центре Осло и стрельбы в летнем молодежном лагере на острове недалеко от столицы Норвегии, погиб по меньшей мере 92 человека.
Сначала прогремел взрыв возле комплекса правительственных зданий в центре Осло, где размещаются канцелярия премьер-министра, а также министерства энергетики, промышленности и юстиции.
ПОЛИЦИЯ УСТАНОВИЛА ЛИЧНОСТЬ ТЕРРОРИСТА, ОРГАНИЗОВАВШЕГО ВЗРЫВ И СТРЕЛЬБУ В НОРВЕГИИ
Жертвами взрыва, по данным полиции, стали семь человек, более 19 были ранены. Премьер-министр Норвегии, лидер Трудовой партии Йенс Столтенберг, и другие чиновники не пострадали.
Через несколько часов мужчина в полицейской форме открыл стрельбу в молодежном лагере на острове вблизи норвежской столицы. Погибло 84 человека.-Качество: DVB
Формат: MPEG-TS
Видео кодек: MPEG2
Аудио кодек: MP2
Видео: 2109 Кбит/сек, 544*576 (4:3), в 25,000 кадр/сек, MPEG Video (Versiopn 2) (Main@Main) (CustomMatrix / BVOP) (0.269 Бит/Пиксели)
Аудио: MP2, 48.0 KHz, 2 ch, 128 Kbps, CBR
Релиз ГРУППЫ
Общее
Идентификатор : 12600 (0x3138)
Формат : MPEG-TS
Размер файла : 262 Мбайт
Продолжительность : 15 м.
Режим общего битрейта : Переменный
Общий поток : 2355 Кбит/сек
Видео
Идентификатор : 1020 (0x3FC)
Идентификатор меню : 1710 (0x6AE)
Формат : MPEG Video
Версия формата : Version 2
Профиль формата : Main@Main
Параметр BVOP формата : Да
Параметр матрицы формата : Выборочная
Параметр GOP формата : M=3, N=12
Идентификатор кодека : 2
Продолжительность : 15 м.
Вид битрейта : Переменный
Битрейт : 2109 Кбит/сек
Максимальный битрейт : 9000 Кбит/сек
Ширина : 544 пикселя
Высота : 576 пикселей
Соотношение сторон : 4:3
Частота кадров : 25,000 кадров/сек
Цветовое пространство : YUV
Субдискретизация насыщенности : 4:2:0
Битовая глубина : 8 бит
Тип развёртки : Чересстрочная
Порядок развёртки : Верхнее поле первое
Метод сжатия : С потерями
Бит/(Пиксели*Кадры) : 0.269
Размер потока : 234 Мбайт (90%)
Аудио
Идентификатор : 1030 (0x406)
Идентификатор меню : 1710 (0x6AE)
Формат : MPEG Audio
Версия формата : Version 1
Профиль формата : Layer 2
Режим : Joint stereo
Идентификатор кодека : 4
Продолжительность : 15 м.
Вид битрейта : Постоянный
Битрейт : 128 Кбит/сек
Каналы : 2 канала
Частота : 48,0 КГц
Метод сжатия : С потерями
Задержка видео : -692 мс.
Размер потока : 14,2 Мбайт (5%)
Меню
Идентификатор : 1000 (0x3E8)
Идентификатор меню : 1710 (0x6AE)
Продолжительность : 15 м.
Список : 1020 (0x3FC) (MPEG Video) / 1030 (0x406) (MPEG Audio)
Максимальный битрейт : 3457200
Download / Скачать

Хотите скачать бесплатно? Зарегистрируйтесь на сайте (ссылка на регистрацию). Pirat.ca - самый быстрый торрент трекер в рунете!

Как скачивать  ·   Что такое торрент  ·   Рейтинг и ограничения



Последний раз редактировалось: UcrusPazzo (2011-12-10 22:47), всего редактировалось 4 раз(а)

Krukov_Aleksey

Корсар

Пост 01-Ноя-2011 12:24 (спустя 2 дня 15 часов)

[Q] 

Огромное спасибо
[Профиль]  [ЛС] 

Ферзь

Корсар

Пост 04-Ноя-2011 19:22 (спустя 3 дня)

[Q] 

Будем смотреть. ОГРОМНЕЙШЕЕ СПАСИБО! bm

_________________
[Профиль]  [ЛС] 

CCCPBess

Шкипер

Пост 05-Ноя-2011 17:55 (спустя 22 часа)

[Q] 

жесть - посмотрим
[Профиль]  [ЛС] 

UcrusPazzo ®

7725

Пост 09-Ноя-2011 01:39 (спустя 3 дня)

[Q] 

Внимание!!!
Торрент перезалит по причите....
Читайте тут Внимание! Просьба перезалить торрент файлы за последнюю неделю.

_________________
[Профиль]  [ЛС] 

sorrr

Корсар

318

Пост 07-Дек-2011 09:51 (спустя 28 дней)

[Q] 

Забираю!
Помогу с раздачей.

_________________
Подпись отключена за нарушение правил форума
[Профиль]  [ЛС] 

me14

1012

Пост 17-Мар-2012 21:16 (спустя 3 месяца 10 дней)

[Q] 


_________________
Если вы все еще не забанены - это не ваша заслуга, а модераторская недоработка.
[Профиль]  [ЛС] 

PeterMoon

Штурман

Пост 30-Дек-2012 17:58 (спустя 9 месяцев 12 дней)

[Q] 

респект
[Профиль]  [ЛС] 

PeterMoon

Штурман

Пост 30-Дек-2012 18:02 (спустя 3 минуты)

[Q] 

респект!
[Профиль]  [ЛС] 
Показать сообщения:    
Ответить на тему

Текущее время: Сегодня 21:45

Часовой пояс: GMT + 4



Вы не можете начинать темы
Вы не можете отвечать на сообщения
Вы не можете редактировать свои сообщения
Вы не можете удалять свои сообщения
Вы не можете голосовать в опросах
Вы не можете прикреплять файлы к сообщениям
Вы не можете скачивать файлы

Майнать ▼