Прямой эфир Александр Буйнов (Михаил Зеленский) [2011 г.] (Документальный) [DVВ] [R.G. DOCpiratTV]

Ответить на тему
 
Автор
Сообщение

Пост 02-Ноя-2011 01:53

[Q] 

UcrusPazzo

Прямой эфир Александр Буйнов -Год выпуска: 2011
Производство: Россия
Жанр: Документальный
Продолжительность: 00:47:52-Ведущий: Михаил Зеленский-В передаче принимают участие: Лайма Вайкуле,Николай Басков,Алла Пугачева,Максим Галкин, Александр Буйнов-Описание: Передача посвящена болезни и выздоровлению Александра Буйнова
Кому интересно
Буйнов, Александр
Родился 24 марта 1955 года в Москве. В 5 лет родители отдали его в музыкальную школу-семилетку Академического училища при Государственной консерватории им. П.И.Чайковского. После её окончания поступил в музыкальное училище, отслужил в армии и снова продолжил обучение в училище им. Гнесиных на дирижерско-хоровом отделении. Высшее образование Буйнов получил уже состоявшимся и популярным исполнителем: в 1992 году он окончил режиссёрский факультет ГИТИСа, а его дипломной работой стал грандиозный концерт-спектакль «Капитан Каталкин» в Санкт-Петербургском концертном зале «Октябрьский».
Александр Буйнов дебютировал в группе «Скоморохи», где впервые заявил о себе как композитор. После службы в армии работал в группе «Аракс», затем в ансамбле «Цветы» и ВИА «Весёлые ребята». В составе группы исполнял такие шлягеры как «Бологое», «Тётя», принимал участие в создании знаменитого альбома «Банановые острова» (1983 год).
В 1989 году Александр Буйнов начал сольную карьеру. В феврале 1993 года стал художественным руководителем ансамбля музыкантов и балета «Чао». За прошедшие годы Александр выступил с успешными концертами в самых престижных залах России: «Во, жизнь довела!» (1994 год), «Я знал любовь!» (1995 год), «Острова любви» (1997 год), «Любовь на двоих» (1999 год), «30 лет на сцене» (2000 год).
В 1998 году озвучил роль Распутина в полнометражном американском мультфильме «Анастасия».
Кроме того, Александр Буйнов - член политсовета Московской организации партии «Единая Россия», член Общественного Совета ГУВД МО.
В 2010 году Александру Буйнову было присвоено звание «Народного артиста России».
Заслуженный артист России.
Народный артист Ингушетии.
Народный артист республики Северная Осетия – Алания.
Награждён: Орденом Почёта, Орденом «Знак Почёта Украины» I степени, почётным знаком «За содействие МВД России», нагрудным знаком «Спецназ России», медалью Министерства обороны РФ «За укрепление боевого содружества», знаком отличия Министерства обороны РФ «Главный маршал артиллерии Неделин».
За оказание содействия войскам и шефскую работу в «горячих точках» награждён грамотами и имеет благодарности от Президента России, Министерства обороны РФ, ФСБ и МВД Российской Федерации. Лауреат премии МВД, лауреат премии Леонида Утесова за вклад в отечественную культуру, неоднократный лауреат фестиваля «Песня года», обладатель Гран-при международного конкурса «Братиславская лира» и приза фирмы «Супрафон». На рок-фестивале «Ереван-80» был удостоен специального приза за аранжировку и исполнение песни Пола Маккартни «Black bird».
2006 - «Взрослые песни»
2006 - «В облака»
2004 - «Все дела»
2003 - «Лови»
2001 - «Нет слов»
2000 - «Любовь на двоих»
1999 - «Финансы поют романсы»
1997 - «Острова любви»
1996 - «Я - Московский!»
1995 - «Я знал любовь!»
1994 - «Во, жизнь довела!»
1993 - «Гостиница Разгульная»
1992 - «Ё-мое»
1991 - «Билет на Копенгаген»
-Источник/Качество: DVВ
Формат: MPEG-TS
Видео кодек: MPEG2
Аудио кодек: MP2
Видео: MPEG 2, 544x576 (4/3), 25.000 fps, 3061 Кбит/сек (0.382 bit/pixel)
Аудио: MP2, 48.0 KHz, 1 ch, 128 Kbps, CBR
Авторы рипа:
Общее
Идентификатор : 12600 (0x3138)
Формат : MPEG-TS
Размер файла : 1,12 Гбайт
Продолжительность : 47 м.
Режим общего битрейта : Переменный
Общий поток : 3356 Кбит/сек
Видео
Идентификатор : 820 (0x334)
Идентификатор меню : 1708 (0x6AC)
Формат : MPEG Video
Версия формата : Version 2
Профиль формата : [email protected]
Параметр BVOP формата : Да
Параметр матрицы формата : Выборочная
Параметр GOP формата : M=3, N=12
Идентификатор кодека : 2
Продолжительность : 47 м.
Вид битрейта : Переменный
Битрейт : 3061 Кбит/сек
Максимальный битрейт : 9000 Кбит/сек
Ширина : 544 пикселя
Высота : 576 пикселей
Соотношение сторон : 4:3
Частота кадров : 25,000 кадров/сек
Цветовое пространство : YUV
Субдискретизация насыщенности : 4:2:0
Битовая глубина : 8 бит
Тип развёртки : Чересстрочная
Порядок развёртки : Верхнее поле первое
Метод сжатия : С потерями
Бит/(Пиксели*Кадры) : 0.391
Размер потока : 1,02 Гбайт (91%)
Аудио
Идентификатор : 830 (0x33E)
Идентификатор меню : 1708 (0x6AC)
Формат : MPEG Audio
Версия формата : Version 1
Профиль формата : Layer 2
Идентификатор кодека : 4
Продолжительность : 47 м.
Вид битрейта : Постоянный
Битрейт : 128 Кбит/сек
Каналы : 1 канал
Частота : 48,0 КГц
Метод сжатия : С потерями
Задержка видео : -244 мс.
Размер потока : 43,8 Мбайт (4%)
Меню
Идентификатор : 800 (0x320)
Идентификатор меню : 1708 (0x6AC)
Продолжительность : 47 м.
Список : 820 (0x334) (MPEG Video) / 830 (0x33E) (MPEG Audio)
Максимальный битрейт : 3968400


Download / Скачать

Хотите скачать бесплатно? Зарегистрируйтесь на сайте (ссылка на регистрацию). Pirat.ca - самый быстрый торрент трекер в рунете!

Как скачивать  ·   Что такое торрент  ·   Рейтинг и ограничения



Последний раз редактировалось: UcrusPazzo (2011-11-07 01:33), всего редактировалось 1 раз

me14

1012

Пост 17-Мар-2012 21:18 (спустя 4 месяца 15 дней)

[Q] 


_________________
Если вы все еще не забанены - это не ваша заслуга, а модераторская недоработка.
[Профиль]  [ЛС] 

PeterMoon

Штурман

Пост 30-Дек-2012 18:05 (спустя 9 месяцев 12 дней)

[Q] 

респект!!!
[Профиль]  [ЛС] 
Показать сообщения:    
Ответить на тему

Текущее время: Сегодня 15:25

Часовой пояс: GMT + 4



Вы не можете начинать темы
Вы не можете отвечать на сообщения
Вы не можете редактировать свои сообщения
Вы не можете удалять свои сообщения
Вы не можете голосовать в опросах
Вы не можете прикреплять файлы к сообщениям
Вы не можете скачивать файлы

Майнать ▼