(Hip Hop) Fort Minor Discography - 2005-2006, (8 cd) FLAC (tracks+.cue) , lossless

Ответить на тему
 
Автор
Сообщение

Пост 15-Янв-2012 03:33

[Q] 

Koralina

Fort Minor - Discography
Год выпуска: 2005-2006
Страна: США
Жанр: Hip Hop
Продолжительность: 04.10.28
Формат: FLAC
Битрейт аудио: lossless
Тип рипа: tracks+.cue
Наличие сканов в содержимом раздачи: да
Albums

Год выпуска диска: 2005
Продолжительность: 00:51:36
Трэклист:
CD:
01. Introduction
02. Remember The Name (feat. Styles Of Beyond)
03. Right Now (feat. Black Thought of The Roots & Styles Of Beyond)
04. Petrified
05. Feel Like Home (feat. Styles Of Beyond)
06. Where'd You Go (feat. Holly Brook & Jonan Matranga)
07. In Stereo
08. Back Home (feat. Common & Styles Of Beyond)
09. Cigarettes
10. Believe Me (feat. Bobo & Styles Of Beyond)
11. Get Me Gone
12. High Road (feat. John Legend)
13. Kenji
14. Red To Black (feat. Kenna, Jonah Matranga & Styles Of Beyond)
15. The Battle (feat. Celph Titled)
16. Slip Out The Back (feat. Mr. Hahn)
CD-ROM:
01. The Making Of "Petrified" Video
02. "Petrified" Video
03. Extras - Wallpapers
04. Weblink - Bonus Online Material
Exact Audio Copy V0.99 prebeta 5 from 4. May 2009
EAC extraction logfile from 13. August 2010, 16:08
Fort Minor / The Rising Tied
Used drive : Optiarc DVD RW AD-7173A Adapter: 3 ID: 0
Read mode : Secure
Utilize accurate stream : Yes
Defeat audio cache : Yes
Make use of C2 pointers : No
Read offset correction : 48
Overread into Lead-In and Lead-Out : No
Fill up missing offset samples with silence : Yes
Delete leading and trailing silent blocks : No
Null samples used in CRC calculations : Yes
Used interface : Native Win32 interface for Win NT & 2000
Gap handling : Appended to previous track
Used output format : User Defined Encoder
Selected bitrate : 1024 kBit/s
Quality : High
Add ID3 tag : No
Command line compressor : C:\Program Files\Exact Audio Copy\FLAC\FLAC.EXE
Additional command line options : -8 -V -T "ARTIST=%a" -T "TITLE=%t" -T "ALBUM=%g" -T "DATE=%y" -T "TRACKNUMBER=%n" -T "GENRE=%m" -T "COMMENT=EAC FLAC -8" %s
TOC of the extracted CD
Track | Start | Length | Start sector | End sector
---------------------------------------------------------
1 | 0:00.00 | 0:43.30 | 0 | 3254
2 | 0:43.30 | 3:50.37 | 3255 | 20541
3 | 4:33.67 | 4:14.44 | 20542 | 39635
4 | 8:48.36 | 3:40.26 | 39636 | 56161
5 | 12:28.62 | 3:53.41 | 56162 | 73677
6 | 16:22.28 | 3:51.65 | 73678 | 91067
7 | 20:14.18 | 3:29.40 | 91068 | 106782
8 | 23:43.58 | 3:44.45 | 106783 | 123627
9 | 27:28.28 | 3:40.13 | 123628 | 140140
10 | 31:08.41 | 3:42.72 | 140141 | 156862
11 | 34:51.38 | 1:56.31 | 156863 | 165593
12 | 36:47.69 | 3:16.39 | 165594 | 180332
13 | 40:04.33 | 3:51.36 | 180333 | 197693
14 | 43:55.69 | 3:11.74 | 197694 | 212092
15 | 47:07.68 | 0:32.02 | 212093 | 214494
16 | 47:39.70 | 3:56.51 | 214495 | 232245
17 | 54:08.46 | 8:20.33 | 243646 | 281178
Track 1
Filename D:\Media Temp\Music\01 - Introduction.wav
Pre-gap length 0:00:02.00
Peak level 96.6 %
Track quality 100.0 %
Test CRC 707B013D
Copy CRC 707B013D
Accurately ripped (confidence 20) [51A09586]
Copy OK
Track 2
Filename D:\Media Temp\Music\02 - Remember The Name.wav
Peak level 100.0 %
Track quality 100.0 %
Test CRC 5E59F6FD
Copy CRC 5E59F6FD
Accurately ripped (confidence 19) [9100D1EE]
Copy OK
Track 3
Filename D:\Media Temp\Music\03 - Right Now.wav
Pre-gap length 0:00:00.01
Peak level 98.8 %
Track quality 100.0 %
Test CRC 00792728
Copy CRC 00792728
Accurately ripped (confidence 20) [9C5E06B4]
Copy OK
Track 4
Filename D:\Media Temp\Music\04 - Petrified.wav
Pre-gap length 0:00:00.01
Peak level 98.8 %
Track quality 100.0 %
Test CRC D00551E0
Copy CRC D00551E0
Accurately ripped (confidence 20) [5A0E838B]
Copy OK
Track 5
Filename D:\Media Temp\Music\05 - Feel Like Home.wav
Pre-gap length 0:00:00.01
Peak level 98.9 %
Track quality 100.0 %
Test CRC 48866B9D
Copy CRC 48866B9D
Accurately ripped (confidence 20) [FE5CB254]
Copy OK
Track 6
Filename D:\Media Temp\Music\06 - Where'd You Go.wav
Pre-gap length 0:00:00.01
Peak level 98.8 %
Track quality 100.0 %
Test CRC 488CF798
Copy CRC 488CF798
Accurately ripped (confidence 19) [0C931792]
Copy OK
Track 7
Filename D:\Media Temp\Music\07 - In Stereo.wav
Pre-gap length 0:00:00.01
Peak level 100.0 %
Track quality 99.9 %
Test CRC B5FFB96A
Copy CRC B5FFB96A
Accurately ripped (confidence 20) [3FC2C099]
Copy OK
Track 8
Filename D:\Media Temp\Music\08 - Back Home.wav
Pre-gap length 0:00:00.01
Peak level 99.9 %
Track quality 100.0 %
Test CRC 4F0C8E26
Copy CRC 4F0C8E26
Accurately ripped (confidence 20) [E0F7E29A]
Copy OK
Track 9
Filename D:\Media Temp\Music\09 - Cigarettes.wav
Pre-gap length 0:00:00.01
Peak level 100.0 %
Track quality 99.9 %
Test CRC 4FD9012C
Copy CRC 4FD9012C
Accurately ripped (confidence 20) [E25C8EEA]
Copy OK
Track 10
Filename D:\Media Temp\Music\10 - Believe Me.wav
Pre-gap length 0:00:00.01
Peak level 100.0 %
Track quality 100.0 %
Test CRC FC31E5FF
Copy CRC FC31E5FF
Accurately ripped (confidence 20) [08C7ABE7]
Copy OK
Track 11
Filename D:\Media Temp\Music\11 - Get Me Gone.wav
Pre-gap length 0:00:00.01
Peak level 98.8 %
Track quality 100.0 %
Test CRC 02972C10
Copy CRC 02972C10
Accurately ripped (confidence 20) [D25A047D]
Copy OK
Track 12
Filename D:\Media Temp\Music\12 - High Road.wav
Pre-gap length 0:00:00.01
Peak level 98.8 %
Track quality 100.0 %
Test CRC 024474F1
Copy CRC 024474F1
Accurately ripped (confidence 19) [2E2DE8AD]
Copy OK
Track 13
Filename D:\Media Temp\Music\13 - Kenji.wav
Pre-gap length 0:00:00.01
Peak level 98.8 %
Track quality 100.0 %
Test CRC 0EAE5560
Copy CRC 0EAE5560
Accurately ripped (confidence 19) [922DDF31]
Copy OK
Track 14
Filename D:\Media Temp\Music\14 - Red To Black.wav
Pre-gap length 0:00:00.01
Peak level 98.8 %
Track quality 100.0 %
Test CRC 88ED36A4
Copy CRC 88ED36A4
Accurately ripped (confidence 20) [831540F0]
Copy OK
Track 15
Filename D:\Media Temp\Music\15 - The Battle.wav
Pre-gap length 0:00:00.01
Peak level 98.8 %
Track quality 100.0 %
Test CRC FB2B5872
Copy CRC FB2B5872
Accurately ripped (confidence 20) [F4110CF3]
Copy OK
Track 16
Filename D:\Media Temp\Music\16 - Slip Out The Back.wav
Pre-gap length 0:00:00.01
Peak level 98.8 %
Track quality 100.0 %
Test CRC BC641587
Copy CRC BC641587
Accurately ripped (confidence 19) [701CDAD7]
Copy OK
All tracks accurately ripped
No errors occurred
End of status report
REM GENRE Hip-Hop
REM DATE 2005
REM DISCID DD0EA511
REM COMMENT "ExactAudioCopy v0.99pb5"
PERFORMER "Fort Minor"
TITLE "The Rising Tied"
FILE "01 - Introduction.wav" WAVE
TRACK 01 AUDIO
TITLE "Introduction"
PERFORMER "Fort Minor"
INDEX 01 00:00:00
FILE "02 - Remember The Name.wav" WAVE
TRACK 02 AUDIO
TITLE "Remember The Name"
PERFORMER "Fort Minor feat. Styles Of Beyond"
INDEX 01 00:00:00
FILE "03 - Right Now.wav" WAVE
TRACK 03 AUDIO
TITLE "Right Now"
PERFORMER "Fort Minor feat. Black Thought of The Roots & Styles Of Beyond"
INDEX 01 00:00:00
FILE "04 - Petrified.wav" WAVE
TRACK 04 AUDIO
TITLE "Petrified"
PERFORMER "Fort Minor"
INDEX 01 00:00:00
FILE "05 - Feel Like Home.wav" WAVE
TRACK 05 AUDIO
TITLE "Feel Like Home feat. Styles Of Beyond"
PERFORMER "Fort Minor"
INDEX 01 00:00:00
FILE "06 - Where'd You Go.wav" WAVE
TRACK 06 AUDIO
TITLE "Where'd You Go"
PERFORMER "Fort Minor feat. Holly Brook & Jonan Matranga"
INDEX 01 00:00:00
FILE "07 - In Stereo.wav" WAVE
TRACK 07 AUDIO
TITLE "In Stereo"
PERFORMER "Fort Minor"
INDEX 01 00:00:00
FILE "08 - Back Home.wav" WAVE
TRACK 08 AUDIO
TITLE "Back Home"
PERFORMER "Fort Minor feat. Common & Styles Of Beyond"
INDEX 01 00:00:00
FILE "09 - Cigarettes.wav" WAVE
TRACK 09 AUDIO
TITLE "Cigarettes"
PERFORMER "Fort Minor"
INDEX 01 00:00:00
FILE "10 - Believe Me.wav" WAVE
TRACK 10 AUDIO
TITLE "Believe Me"
PERFORMER "Fort Minor feat. Bobo & Styles Of Beyond"
INDEX 01 00:00:00
FILE "11 - Get Me Gone.wav" WAVE
TRACK 11 AUDIO
TITLE "Get Me Gone"
PERFORMER "Fort Minor"
INDEX 01 00:00:00
FILE "12 - High Road.wav" WAVE
TRACK 12 AUDIO
TITLE "High Road"
PERFORMER "Fort Minor feat. John Legend"
INDEX 01 00:00:00
FILE "13 - Kenji.wav" WAVE
TRACK 13 AUDIO
TITLE "Kenji"
PERFORMER "Fort Minor"
INDEX 01 00:00:00
FILE "14 - Red To Black.wav" WAVE
TRACK 14 AUDIO
TITLE "Red To Black"
PERFORMER "Fort Minor feat. Kenna, Jonah Matranga & Styles Of Beyond"
INDEX 01 00:00:00
FILE "15 - The Battle.wav" WAVE
TRACK 15 AUDIO
TITLE "The Battle"
PERFORMER "Fort Minor feat. Celph Titled"
INDEX 01 00:00:00
FILE "16 - Slip Out The Back.wav" WAVE
TRACK 16 AUDIO
TITLE "Slip Out The Back"
PERFORMER "Fort Minor feat. Mr. Hahn"
INDEX 01 00:00:00
TRACK 17 MODEx/2xxx
TITLE "Enhanced Media"
PERFORMER "Fort Minor"
INDEX 00 03:56:51

Год выпуска диска: 2005
Продолжительность: 01:02:09
Трэклист:
CD:
01. Introduction
02. Remember The Name (feat. Styles Of Beyond)
03. Right Now (feat. Black Thought of The Roots & Styles Of Beyond)
04. Petrified
05. Feel Like Home (feat. Styles Of Beyond)
06. Where'd You Go (feat. Holly Brook & Jonan Matranga)
07. In Stereo
08. Back Home (feat. Common & Styles Of Beyond)
09. Cigarettes
10. Believe Me (feat. Bobo & Styles Of Beyond)
11. Get Me Gone
12. High Road (feat. John Legend)
13. Kenji
14. Red To Black (feat. Kenna, Jonah Matranga & Styles Of Beyond)
15. The Battle (feat. Celph Titled)
16. Slip Out The Back (feat. Mr. Hahn)
18. (Silent Track)
17. (Silent Track)
19. Be Somebody (feat. Lupe Fiasco, Holly Brook & Tak of Styles Of Beyond)
20. There They Go (feat. Sixx John)
21. The Hard Way (feat. Kenna)
CD-ROM:
01. The Making Of "Petrified" Video
02. "Petrified" Video
03. Extras - Wallpapers
04. Weblink - Bonus Online Material
DVD: The Making Of "The Rising Tied"
01. In-Studio Interview
02. Mike Shinoda Meeting Jay-Z
03. The Album's Artwork
04. The Making Of "Petrified" Video
Exact Audio Copy V0.99 prebeta 5 from 4. May 2009
EAC extraction logfile from 13. August 2010, 19:52
Fort Minor / The Rising Tied (Limited Edition)
Used drive : Optiarc DVD RW AD-7173A Adapter: 3 ID: 0
Read mode : Secure
Utilize accurate stream : Yes
Defeat audio cache : Yes
Make use of C2 pointers : No
Read offset correction : 48
Overread into Lead-In and Lead-Out : No
Fill up missing offset samples with silence : Yes
Delete leading and trailing silent blocks : No
Null samples used in CRC calculations : Yes
Used interface : Native Win32 interface for Win NT & 2000
Gap handling : Appended to previous track
Used output format : User Defined Encoder
Selected bitrate : 1024 kBit/s
Quality : High
Add ID3 tag : No
Command line compressor : C:\Program Files\Exact Audio Copy\FLAC\FLAC.EXE
Additional command line options : -8 -V -T "ARTIST=%a" -T "TITLE=%t" -T "ALBUM=%g" -T "DATE=%y" -T "TRACKNUMBER=%n" -T "GENRE=%m" -T "COMMENT=EAC FLAC -8" %s
TOC of the extracted CD
Track | Start | Length | Start sector | End sector
---------------------------------------------------------
1 | 0:00.00 | 0:43.30 | 0 | 3254
2 | 0:43.30 | 3:50.37 | 3255 | 20541
3 | 4:33.67 | 4:14.44 | 20542 | 39635
4 | 8:48.36 | 3:40.26 | 39636 | 56161
5 | 12:28.62 | 3:53.41 | 56162 | 73677
6 | 16:22.28 | 3:51.65 | 73678 | 91067
7 | 20:14.18 | 3:29.40 | 91068 | 106782
8 | 23:43.58 | 3:44.45 | 106783 | 123627
9 | 27:28.28 | 3:40.13 | 123628 | 140140
10 | 31:08.41 | 3:42.72 | 140141 | 156862
11 | 34:51.38 | 1:56.31 | 156863 | 165593
12 | 36:47.69 | 3:16.39 | 165594 | 180332
13 | 40:04.33 | 3:51.36 | 180333 | 197693
14 | 43:55.69 | 3:11.74 | 197694 | 212092
15 | 47:07.68 | 0:32.02 | 212093 | 214494
16 | 47:39.70 | 3:56.51 | 214495 | 232245
17 | 51:36.46 | 0:04.01 | 232246 | 232546
18 | 51:40.47 | 0:04.04 | 232547 | 232850
19 | 51:44.51 | 3:15.05 | 232851 | 247480
20 | 54:59.56 | 3:17.25 | 247481 | 262280
21 | 58:17.06 | 3:52.18 | 262281 | 279698
22 | 64:41.24 | 8:20.33 | 291099 | 328631
Track 1
Filename D:\Media Temp\Music\01 - Introduction.wav
Pre-gap length 0:00:02.00
Peak level 96.6 %
Track quality 100.0 %
Test CRC 168F8119
Copy CRC 168F8119
Accurately ripped (confidence 16) [06B91052]
Copy OK
Track 2
Filename D:\Media Temp\Music\02 - Remember The Name.wav
Peak level 100.0 %
Track quality 99.9 %
Test CRC 6A5E1644
Copy CRC 6A5E1644
Accurately ripped (confidence 16) [C70EE74E]
Copy OK
Track 3
Filename D:\Media Temp\Music\03 - Right Now.wav
Peak level 98.8 %
Track quality 100.0 %
Test CRC 6078A296
Copy CRC 6078A296
Accurately ripped (confidence 16) [051BF520]
Copy OK
Track 4
Filename D:\Media Temp\Music\04 - Petrified.wav
Peak level 98.8 %
Track quality 99.9 %
Test CRC 23DA612B
Copy CRC 23DA612B
Accurately ripped (confidence 16) [0B50F7ED]
Copy OK
Track 5
Filename D:\Media Temp\Music\05 - Feel Like Home.wav
Peak level 98.9 %
Track quality 99.9 %
Test CRC F8754603
Copy CRC F8754603
Accurately ripped (confidence 16) [B1B4492B]
Copy OK
Track 6
Filename D:\Media Temp\Music\06 - Where'd You Go.wav
Peak level 98.8 %
Track quality 100.0 %
Test CRC 0A32DD58
Copy CRC 0A32DD58
Accurately ripped (confidence 16) [E9B0F428]
Copy OK
Track 7
Filename D:\Media Temp\Music\07 - In Stereo.wav
Peak level 100.0 %
Track quality 99.9 %
Test CRC B2AD974C
Copy CRC B2AD974C
Accurately ripped (confidence 16) [15950936]
Copy OK
Track 8
Filename D:\Media Temp\Music\08 - Back Home.wav
Peak level 99.9 %
Track quality 99.9 %
Test CRC 982436D7
Copy CRC 982436D7
Accurately ripped (confidence 16) [B7209353]
Copy OK
Track 9
Filename D:\Media Temp\Music\09 - Cigarettes.wav
Peak level 100.0 %
Track quality 99.9 %
Test CRC 5B6DD1B9
Copy CRC 5B6DD1B9
Accurately ripped (confidence 15) [418A8411]
Copy OK
Track 10
Filename D:\Media Temp\Music\10 - Believe Me.wav
Peak level 100.0 %
Track quality 100.0 %
Test CRC FF2C222C
Copy CRC FF2C222C
Accurately ripped (confidence 15) [F2E8274A]
Copy OK
Track 11
Filename D:\Media Temp\Music\11 - Get Me Gone.wav
Peak level 98.8 %
Track quality 100.0 %
Test CRC 740E51C4
Copy CRC 740E51C4
Accurately ripped (confidence 16) [F969F2F4]
Copy OK
Track 12
Filename D:\Media Temp\Music\12 - High Road.wav
Peak level 98.8 %
Track quality 99.8 %
Test CRC 5EDF7FBD
Copy CRC 5EDF7FBD
Accurately ripped (confidence 16) [1605A348]
Copy OK
Track 13
Filename D:\Media Temp\Music\13 - Kenji.wav
Peak level 98.8 %
Track quality 100.0 %
Test CRC 2CA14154
Copy CRC 2CA14154
Accurately ripped (confidence 16) [4729BA0F]
Copy OK
Track 14
Filename D:\Media Temp\Music\14 - Red To Black.wav
Peak level 98.8 %
Track quality 100.0 %
Test CRC C1F24B9F
Copy CRC C1F24B9F
Accurately ripped (confidence 16) [6AF80A6E]
Copy OK
Track 15
Filename D:\Media Temp\Music\15 - The Battle.wav
Peak level 98.8 %
Track quality 100.0 %
Test CRC 7F326795
Copy CRC 7F326795
Accurately ripped (confidence 16) [F98A183D]
Copy OK
Track 16
Filename D:\Media Temp\Music\16 - Slip Out The Back.wav
Peak level 98.8 %
Track quality 100.0 %
Test CRC 34CCC8D1
Copy CRC 34CCC8D1
Accurately ripped (confidence 16) [7B88B09D]
Copy OK
Track 17
Filename D:\Media Temp\Music\17 - Silent Track.wav
Peak level 0.0 %
Track quality 100.0 %
Test CRC 02C5804D
Copy CRC 02C5804D
Track not present in AccurateRip database
Copy OK
Track 18
Filename D:\Media Temp\Music\18 - Silent Track.wav
Peak level 0.0 %
Track quality 100.0 %
Test CRC 7EBDB2E9
Copy CRC 7EBDB2E9
Track not present in AccurateRip database
Copy OK
Track 19
Filename D:\Media Temp\Music\19 - Be Somebody.wav
Peak level 98.8 %
Track quality 100.0 %
Test CRC 0A4DAFD6
Copy CRC 0A4DAFD6
Accurately ripped (confidence 16) [43AD1B74]
Copy OK
Track 20
Filename D:\Media Temp\Music\20 - There They Go.wav
Pre-gap length 0:00:00.34
Peak level 98.8 %
Track quality 100.0 %
Test CRC 052DA981
Copy CRC 052DA981
Accurately ripped (confidence 14) [94C6F34B]
Copy OK
Track 21
Filename D:\Media Temp\Music\21 - The Hard Way.wav
Peak level 98.8 %
Track quality 97.2 %
Test CRC BD8DC23F
Copy CRC 345AFC4C
Accurately ripped (confidence 17) [C19F9DF2]
Copy OK
19 track(s) accurately ripped
2 track(s) not present in the AccurateRip database
Some tracks could not be verified as accurate
No errors occurred
End of status report
REM GENRE Hip-Hop
REM DATE 2005
REM DISCID 2E111D16
REM COMMENT "ExactAudioCopy v0.99pb5"
PERFORMER "Fort Minor"
TITLE "The Rising Tied (Limited Edition)"
FILE "01 - Introduction.wav" WAVE
TRACK 01 AUDIO
TITLE "Introduction"
PERFORMER "Fort Minor"
INDEX 01 00:00:00
FILE "02 - Remember The Name.wav" WAVE
TRACK 02 AUDIO
TITLE "Remember The Name"
PERFORMER "Fort Minor feat. Styles Of Beyond"
INDEX 01 00:00:00
FILE "03 - Right Now.wav" WAVE
TRACK 03 AUDIO
TITLE "Right Now"
PERFORMER "Fort Minor feat. Black Thought of The Roots & Styles Of Beyond"
INDEX 01 00:00:00
FILE "04 - Petrified.wav" WAVE
TRACK 04 AUDIO
TITLE "Petrified"
PERFORMER "Fort Minor"
INDEX 01 00:00:00
FILE "05 - Feel Like Home.wav" WAVE
TRACK 05 AUDIO
TITLE "Feel Like Home"
PERFORMER "Fort Minor feat. Styles Of Beyond"
INDEX 01 00:00:00
FILE "06 - Where'd You Go.wav" WAVE
TRACK 06 AUDIO
TITLE "Where'd You Go"
PERFORMER "Fort Minor feat. Holly Brook & Jonan Matranga"
INDEX 01 00:00:00
FILE "07 - In Stereo.wav" WAVE
TRACK 07 AUDIO
TITLE "In Stereo"
PERFORMER "Fort Minor"
INDEX 01 00:00:00
FILE "08 - Back Home.wav" WAVE
TRACK 08 AUDIO
TITLE "Back Home"
PERFORMER "Fort Minor feat. Common & Styles Of Beyond"
INDEX 01 00:00:00
FILE "09 - Cigarettes.wav" WAVE
TRACK 09 AUDIO
TITLE "Cigarettes"
PERFORMER "Fort Minor"
INDEX 01 00:00:00
FILE "10 - Believe Me.wav" WAVE
TRACK 10 AUDIO
TITLE "Believe Me"
PERFORMER "Fort Minor feat. Bobo & Styles Of Beyond"
INDEX 01 00:00:00
FILE "11 - Get Me Gone.wav" WAVE
TRACK 11 AUDIO
TITLE "Get Me Gone"
PERFORMER "Fort Minor"
INDEX 01 00:00:00
FILE "12 - High Road.wav" WAVE
TRACK 12 AUDIO
TITLE "High Road"
PERFORMER "Fort Minor feat. John Legend"
INDEX 01 00:00:00
FILE "13 - Kenji.wav" WAVE
TRACK 13 AUDIO
TITLE "Kenji"
PERFORMER "Fort Minor"
INDEX 01 00:00:00
FILE "14 - Red To Black.wav" WAVE
TRACK 14 AUDIO
TITLE "Red To Black"
PERFORMER "Fort Minor feat. Kenna, Jonah Matranga & Styles Of Beyond"
INDEX 01 00:00:00
FILE "15 - The Battle.wav" WAVE
TRACK 15 AUDIO
TITLE "The Battle"
PERFORMER "Fort Minor feat. Celph Titled"
INDEX 01 00:00:00
FILE "16 - Slip Out The Back.wav" WAVE
TRACK 16 AUDIO
TITLE "Slip Out The Back"
PERFORMER "Fort Minor feat. Mr. Hahn"
INDEX 01 00:00:00
FILE "17 - Silent Track.wav" WAVE
TRACK 17 AUDIO
TITLE "Silent Track"
PERFORMER "Fort Minor"
INDEX 01 00:00:00
FILE "18 - Silent Track.wav" WAVE
TRACK 18 AUDIO
TITLE "Silent Track"
PERFORMER "Fort Minor"
INDEX 01 00:00:00
FILE "19 - Be Somebody.wav" WAVE
TRACK 19 AUDIO
TITLE "Be Somebody"
PERFORMER "Fort Minor feat. Lupe Fiasco, Holly Brook & Tak of Styles Of Beyond"
INDEX 01 00:00:00
FILE "20 - There They Go.wav" WAVE
TRACK 20 AUDIO
TITLE "There They Go"
PERFORMER "Fort Minor feat. Sixx John"
INDEX 01 00:00:00
FILE "21 - The Hard Way.wav" WAVE
TRACK 21 AUDIO
TITLE "The Hard Way"
PERFORMER "Fort Minor feat. Kenna"
INDEX 01 00:00:00
TRACK 22 MODEx/2xxx
TITLE "Enhanced Media"
PERFORMER "Fort Minor"
INDEX 00 03:52:18
Singles

Год выпуска диска: 2005
Продолжительность: 00:22:34
Трэклист:
01. Petrified (Radio Edit)
02. Petrified (Album Version)
03. Petrified (Instrumental)
04. Remember The Name (Radio Edit)
05. Remember The Name (Album Version)
06. Remember The Name (Instrumental)
Exact Audio Copy V0.99 prebeta 4 from 23. January 2008
Отчёт EAC об извлечении, выполненном 18. августа 2010, 19:16
Fort Minor / Petrified/Remember the Name
Дисковод: Optiarc DVD RW AD-7203A Adapter: 0 ID: 1
Режим чтения : Достоверность
Использование точного потока : Да
Отключение кэша аудио : Да
Использование указателей C2 : Нет
Коррекция смещения при чтении : 48
Способность читать области Lead-in и Lead-out : Нет
Заполнение пропущенных сэмплов тишиной : Да
Удаление блоков с тишиной в начале и конце : Нет
При вычислениях CRC использовались нулевые сэмплы : Да
Интерфейс : Установленный внешний ASPI-интерфейс
Обработка зазоров : Добавлено к предыдущему треку
Выходной формат : Пользовательский кодировщик
Выбранный битрейт : 320 kBit/s
Качество : Высокий
Добавление ID3-тэга : Нет
Утилита сжатия : C:\Program Files\FLAC\flac.exe
Дополнительные параметры : --best -T "ARTIST=%a" -T "TITLE=%t" -T "ALBUM=%g" -T "DATE=%y" -T "TRACKNUMBER=%n" -T "GENRE=%m" %s
TOC извлечённого CD
Трек | Старт | Длительность | Начальный сектор | Конечный сектор
---------------------------------------------------------------------
1 | 0:00.00 | 3:43.54 | 0 | 16778
2 | 3:43.54 | 3:42.72 | 16779 | 33500
3 | 7:26.51 | 3:43.01 | 33501 | 50226
4 | 11:09.52 | 3:48.51 | 50227 | 67377
5 | 14:58.28 | 3:49.28 | 67378 | 84580
6 | 18:47.56 | 3:46.59 | 84581 | 101589
Трек 1
Имя файла Y:\_Extract_temp\Fort Minor - Petrified,Remember the Name\01-Petrified (Radio Edit).wav
Длина предзазора 0:00:02.00
Пиковый уровень 98.8 %
Качество трека 100.0 %
CRC теста 15F9B22E
CRC копии 15F9B22E
Трек не обнаружен в базе AccurateRip
Копирование... OK
Трек 2
Имя файла Y:\_Extract_temp\Fort Minor - Petrified,Remember the Name\02-Petrified (Album Version).wav
Длина предзазора 0:00:02.00
Пиковый уровень 98.8 %
Качество трека 100.0 %
CRC теста 06B90279
CRC копии 06B90279
Трек не обнаружен в базе AccurateRip
Копирование... OK
Трек 3
Имя файла Y:\_Extract_temp\Fort Minor - Petrified,Remember the Name\03-Petrified (Instrumental).wav
Длина предзазора 0:00:02.00
Пиковый уровень 98.8 %
Качество трека 100.0 %
CRC теста 2F9AA2F4
CRC копии 2F9AA2F4
Трек не обнаружен в базе AccurateRip
Копирование... OK
Трек 4
Имя файла Y:\_Extract_temp\Fort Minor - Petrified,Remember the Name\04-Remember the Name [feat. Styles of Beyond] (Radio Edit).wav
Длина предзазора 0:00:02.00
Пиковый уровень 98.8 %
Качество трека 100.0 %
CRC теста D690FDF8
CRC копии D690FDF8
Трек не обнаружен в базе AccurateRip
Копирование... OK
Трек 5
Имя файла Y:\_Extract_temp\Fort Minor - Petrified,Remember the Name\05-Remember the Name [feat. Styles of Beyond] (Album Version).wav
Длина предзазора 0:00:02.00
Пиковый уровень 98.8 %
Качество трека 100.0 %
CRC теста 0557F164
CRC копии 0557F164
Трек не обнаружен в базе AccurateRip
Копирование... OK
Трек 6
Имя файла Y:\_Extract_temp\Fort Minor - Petrified,Remember the Name\06-Remember the Name [feat. Styles of Beyond] (Instrumental).wav
Длина предзазора 0:00:02.00
Пиковый уровень 98.8 %
Качество трека 99.9 %
CRC теста B453FEBC
CRC копии B453FEBC
Трек не обнаружен в базе AccurateRip
Копирование... OK
Ни одного трека нет в базе AccurateRip
Ошибок не произошло
Конец отчёта
REM GENRE Hip-Hop
REM DATE 2005
REM DISCID 3F054A06
REM COMMENT "ExactAudioCopy v0.99pb4"
PERFORMER "Fort Minor"
TITLE "Petrified / Remember The Name"
FILE "01 - Petrified (Radio Edit).wav" WAVE
TRACK 01 AUDIO
TITLE "Petrified (Radio Edit)"
PERFORMER "Fort Minor"
INDEX 01 00:00:00
FILE "02 - Petrified (Album Version).wav" WAVE
TRACK 02 AUDIO
TITLE "Petrified (Album Version)"
PERFORMER "Fort Minor"
INDEX 01 00:00:00
FILE "03 - Petrified (Instrumental).wav" WAVE
TRACK 03 AUDIO
TITLE "Petrified (Instrumental)"
PERFORMER "Fort Minor"
INDEX 01 00:00:00
FILE "04 - Remember The Name (Radio Edit).wav" WAVE
TRACK 04 AUDIO
TITLE "Remember The Name (Radio Edit)"
PERFORMER "Fort Minor feat. Styles Of Beyond"
INDEX 01 00:00:00
FILE "05 - Remember The Name (Album Version).wav" WAVE
TRACK 05 AUDIO
TITLE "Remember The Name (Album Version)"
PERFORMER "Fort Minor feat. Styles Of Beyond"
INDEX 01 00:00:00
FILE "06 - Remember The Name (Instrumental).wav" WAVE
TRACK 06 AUDIO
TITLE "Remember The Name (Instrumental)"
PERFORMER "Fort Minor feat. Styles Of Beyond"
INDEX 01 00:00:00

Год выпуска диска: 2005
Продолжительность: 00:10:42
Трэклист:
01. Believe Me (Featuring Bobo And Styles Of Beyond)
02. There They Go (Featuring Sixx John)
03. Petrified (Los Angeles Remix)
Exact Audio Copy V0.99 prebeta 5 from 4. May 2009
EAC extraction logfile from 25. July 2010, 20:47
Fort Minor / Believe Me
Used drive : Optiarc DVD RW AD-7173A Adapter: 3 ID: 0
Read mode : Secure
Utilize accurate stream : Yes
Defeat audio cache : Yes
Make use of C2 pointers : No
Read offset correction : 48
Overread into Lead-In and Lead-Out : No
Fill up missing offset samples with silence : Yes
Delete leading and trailing silent blocks : No
Null samples used in CRC calculations : Yes
Used interface : Native Win32 interface for Win NT & 2000
Gap handling : Appended to previous track
Used output format : User Defined Encoder
Selected bitrate : 1024 kBit/s
Quality : High
Add ID3 tag : No
Command line compressor : C:\Program Files\Exact Audio Copy\FLAC\FLAC.EXE
Additional command line options : -8 -V -T "ARTIST=%a" -T "TITLE=%t" -T "ALBUM=%g" -T "DATE=%y" -T "TRACKNUMBER=%n" -T "GENRE=%m" -T "COMMENT=EAC FLAC -8" %s
TOC of the extracted CD
Track | Start | Length | Start sector | End sector
---------------------------------------------------------
1 | 0:00.00 | 3:51.00 | 0 | 17324
2 | 3:51.00 | 3:19.00 | 17325 | 32249
3 | 7:10.00 | 3:32.47 | 32250 | 48196
Track 1
Filename D:\Media Temp\Music\01 - Believe Me (Featuring Bobo And Styles Of Beyond).wav
Pre-gap length 0:00:02.00
Peak level 100.0 %
Track quality 100.0 %
Test CRC DC982C5A
Copy CRC DC982C5A
Cannot be verified as accurate (confidence 3) [7A22FF16], AccurateRip returned [94CAEEB8]
Copy OK
Track 2
Filename D:\Media Temp\Music\02 - There They Go (Featuring Sixx John).wav
Pre-gap length 0:00:01.51
Peak level 98.8 %
Track quality 100.0 %
Test CRC F0FF08AC
Copy CRC F0FF08AC
Cannot be verified as accurate (confidence 2) [51B6FE1B], AccurateRip returned [40CD51E9]
Copy OK
Track 3
Filename D:\Media Temp\Music\03 - Petrified (Los Angeles Remix).wav
Pre-gap length 0:00:01.32
Peak level 98.8 %
Track quality 100.0 %
Test CRC 7D95D2B4
Copy CRC 7D95D2B4
Cannot be verified as accurate (confidence 2) [6E8E62A1], AccurateRip returned [186C1493]
Copy OK
No tracks could be verified as accurate
You may have a different pressing from the one(s) in the database
No errors occurred
End of status report
REM GENRE Hip-Hop
REM DATE 2005
REM DISCID 13028203
REM COMMENT "ExactAudioCopy v0.99pb5"
PERFORMER "Fort Minor"
TITLE "Believe Me"
FILE "01 - Believe Me (Featuring Bobo And Styles Of Beyond).wav" WAVE
TRACK 01 AUDIO
TITLE "Believe Me (Featuring Bobo And Styles Of Beyond)"
PERFORMER "Fort Minor"
INDEX 01 00:00:00
FILE "02 - There They Go (Featuring Sixx John).wav" WAVE
TRACK 02 AUDIO
TITLE "There They Go (Featuring Sixx John)"
PERFORMER "Fort Minor"
INDEX 01 00:00:00
FILE "03 - Petrified (Los Angeles Remix).wav" WAVE
TRACK 03 AUDIO
TITLE "Petrified (Los Angeles Remix)"
PERFORMER "Fort Minor"
INDEX 01 00:00:00

Год выпуска диска: 2006
Продолжительность: 00:11:21
Трэклист:
01. Where'd You Go (Featuring Holly Brook & Jonah Matranga)
02. Where'd You Go (Big Bad Remix)
03. Where'd You Go (SOB Remix)
Exact Audio Copy V0.99 prebeta 5 from 4. May 2009
EAC extraction logfile from 25. July 2010, 20:12
Fort Minor / Where'd You Go
Used drive : Optiarc DVD RW AD-7173A Adapter: 3 ID: 0
Read mode : Secure
Utilize accurate stream : Yes
Defeat audio cache : Yes
Make use of C2 pointers : No
Read offset correction : 48
Overread into Lead-In and Lead-Out : No
Fill up missing offset samples with silence : Yes
Delete leading and trailing silent blocks : No
Null samples used in CRC calculations : Yes
Used interface : Native Win32 interface for Win NT & 2000
Gap handling : Appended to previous track
Used output format : User Defined Encoder
Selected bitrate : 1024 kBit/s
Quality : High
Add ID3 tag : No
Command line compressor : C:\Program Files\Exact Audio Copy\FLAC\FLAC.EXE
Additional command line options : -8 -V -T "ARTIST=%a" -T "TITLE=%t" -T "ALBUM=%g" -T "DATE=%y" -T "TRACKNUMBER=%n" -T "GENRE=%m" -T "COMMENT=EAC FLAC -8" %s
TOC of the extracted CD
Track | Start | Length | Start sector | End sector
---------------------------------------------------------
1 | 0:00.00 | 3:54.72 | 0 | 17621
2 | 3:54.72 | 4:09.49 | 17622 | 36345
3 | 8:04.46 | 3:17.10 | 36346 | 51130
Track 1
Filename D:\Media Temp\Music\01 - Where'd You Go (Featuring Holly Brook & Jonah Matranga).wav
Pre-gap length 0:00:02.00
Peak level 98.8 %
Track quality 100.0 %
Test CRC 62578D34
Copy CRC 62578D34
Track not present in AccurateRip database
Copy OK
Track 2
Filename D:\Media Temp\Music\02 - Where'd You Go (Big Bad Remix).wav
Pre-gap length 0:00:02.00
Peak level 98.8 %
Track quality 100.0 %
Test CRC A5F159A7
Copy CRC A5F159A7
Track not present in AccurateRip database
Copy OK
Track 3
Filename D:\Media Temp\Music\03 - Where'd You Go (SOB Remix).wav
Pre-gap length 0:00:02.00
Peak level 98.8 %
Track quality 99.9 %
Test CRC 7138A99D
Copy CRC 7138A99D
Track not present in AccurateRip database
Copy OK
None of the tracks are present in the AccurateRip database
No errors occurred
End of status report
REM GENRE Hip-Hop
REM DATE 2006
REM DISCID 1F02A903
REM COMMENT "ExactAudioCopy v0.99pb5"
PERFORMER "Fort Minor"
TITLE "Where'd You Go"
FILE "01 - Where'd You Go (Featuring Holly Brook & Jonah Matranga).wav" WAVE
TRACK 01 AUDIO
TITLE "Where'd You Go (Featuring Holly Brook & Jonah Matranga)"
PERFORMER "Fort Minor"
INDEX 01 00:00:00
FILE "02 - Where'd You Go (Big Bad Remix).wav" WAVE
TRACK 02 AUDIO
TITLE "Where'd You Go (Big Bad Remix)"
PERFORMER "Fort Minor"
INDEX 01 00:00:00
FILE "03 - Where'd You Go (SOB Remix).wav" WAVE
TRACK 03 AUDIO
TITLE "Where'd You Go (SOB Remix)"
PERFORMER "Fort Minor"
INDEX 01 00:00:00
Mixtapes

Год выпуска диска: 2005
Продолжительность: 00:59:23
Трэклист:
01. Fort Minor - Intro
02. Fort Minor - 100 Degrees
03. Fort Minor and Styles of Beyond - Dolla
04. Apathy, M. Shinoda and Tak of S.O.B. - Bloc Party
05. Mike Shinoda, Ryu of S.O.B., Juelz Santana and Celph Titled - S.C.O.M.
06. Fort Minor Feat. Styles of Beyond - Remember The Name (Funkadelic Remix)
07. Fort Minor - Bleach Jimi (Hey Joe Remix)
08. Mike Shinoda Feat. Lupe Fiasco & Ghostface Killah - Spray Paint & Ink Pens
09. Fort Minor - Petrified (Doors Remix)
10. Styles of Beyond - Get It
11. Fort Minor feat. Lupe Fiasco and Holly Brook - Be Somebody
12. Fort Minor, Styles of Beyond and Celph Titled - Respect 4 Grandma
13. Fort Minor Feat. Sixx John - There They Go (Green Lantern Remix)
14. Apathy, Tak of S.O.B., and Celph Titled - All Night
15. Fort Minor - Nobody's Listening (Green Lantern Remix)
16. Fort Minor Feat. Styles of Beyond - Cover and Duck
17. Fort Minor Feat. Styles Of Beyond - Remember The Name (Album Version)
18. Fort Minor - Petrified (Album Version)
19. Fort Minor - Outro
Exact Audio Copy V0.99 prebeta 3 from 28. July 2007
EAC extraction logfile from 25. November 2007, 0:16
Fort Minor / We Major (Presented by DJ Green Lantern)
Used drive : _NEC DVD_RW ND-3550A Adapter: 1 ID: 0
Read mode : Secure
Utilize accurate stream : Yes
Defeat audio cache : Yes
Make use of C2 pointers : No
Read offset correction : 48
Overread into Lead-In and Lead-Out : No
Fill up missing offset samples with silence : Yes
Delete leading and trailing silent blocks : No
Null samples used in CRC calculations : Yes
Used interface : Installed external ASPI interface
Gap handling : Appended to previous track
Used output format : User Defined Encoder
Selected bitrate : 192 kBit/s
Quality : High
Add ID3 tag : No
Command line compressor : C:\Program Files\FLAC\flac.exe
Additional command line options : -8 -A tukey(0.25) -A gauss(0.1875) -b 4096 -V -T "artist=%a" -T "title=%t" -T "album=%g" -T "date=%y" -T "tracknumber=%n" -T "genre=%m" %s --sector-align
TOC of the extracted CD
Track | Start | Length | Start sector | End sector
---------------------------------------------------------
1 | 0:00.00 | 1:33.66 | 0 | 7040
2 | 1:33.66 | 3:05.38 | 7041 | 20953
3 | 4:39.29 | 3:05.08 | 20954 | 34836
4 | 7:44.37 | 2:39.41 | 34837 | 46802
5 | 10:24.03 | 3:30.55 | 46803 | 62607
6 | 13:54.58 | 3:37.27 | 62608 | 78909
7 | 17:32.10 | 3:48.55 | 78910 | 96064
8 | 21:20.65 | 4:06.35 | 96065 | 114549
9 | 25:27.25 | 3:28.19 | 114550 | 130168
10 | 28:55.44 | 3:08.58 | 130169 | 144326
11 | 32:04.27 | 3:12.27 | 144327 | 158753
12 | 35:16.54 | 3:05.09 | 158754 | 172637
13 | 38:21.63 | 3:18.72 | 172638 | 187559
14 | 41:40.60 | 3:28.24 | 187560 | 203183
15 | 45:09.09 | 2:31.70 | 203184 | 214578
16 | 47:41.04 | 4:54.66 | 214579 | 236694
17 | 52:35.70 | 3:11.73 | 236695 | 251092
18 | 55:47.68 | 2:46.46 | 251093 | 263588
19 | 58:34.39 | 0:49.18 | 263589 | 267281
Track 1
Filename C:\Fort Minor - We Major Mixtape (Presented by DJ Green Lantern)\01 - DJ Green Lantern , Green Lantern Intro.wav
Pre-gap length 0:00:02.00
Peak level 98.8 %
Track quality 100.0 %
Test CRC C6BA06ED
Copy CRC C6BA06ED
Cannot be verified as accurate (confidence 1) [9EC6FC88], AccurateRip returned [8A4C20CC]
Copy OK
Track 2
Filename C:\Fort Minor - We Major Mixtape (Presented by DJ Green Lantern)\02 - Fort Minor , 100 Degrees.wav
Peak level 98.8 %
Track quality 100.0 %
Test CRC 5671942F
Copy CRC 5671942F
Cannot be verified as accurate (confidence 1) [FE076A2B], AccurateRip returned [982ECD38]
Copy OK
Track 3
Filename C:\Fort Minor - We Major Mixtape (Presented by DJ Green Lantern)\03 - Fort Minor & Styles of Beyond , Dolla.wav
Peak level 98.8 %
Track quality 100.0 %
Test CRC 648CE991
Copy CRC 648CE991
Cannot be verified as accurate (confidence 1) [09ABDF8C], AccurateRip returned [7AF1C34F]
Copy OK
Track 4
Filename C:\Fort Minor - We Major Mixtape (Presented by DJ Green Lantern)\04 - Apathy, M. Shinoda and Tak of S.O.B. , Bloc Party.wav
Peak level 98.8 %
Track quality 100.0 %
Test CRC 5B18E81B
Copy CRC 5B18E81B
Cannot be verified as accurate (confidence 1) [092774C8], AccurateRip returned [EFC92614]
Copy OK
Track 5
Filename C:\Fort Minor - We Major Mixtape (Presented by DJ Green Lantern)\05 - Ryu of S.O.B., Juelz Santana, and Celph Titled , S.C.O.M..wav
Peak level 98.8 %
Track quality 100.0 %
Test CRC 8A0BDB30
Copy CRC 8A0BDB30
Cannot be verified as accurate (confidence 1) [7B97F50C], AccurateRip returned [D975CE33]
Copy OK
Track 6
Filename C:\Fort Minor - We Major Mixtape (Presented by DJ Green Lantern)\06 - Fort Minor Feat. Styles of Beyond , Remember the Name (Funkadelic Remix).wav
Peak level 98.8 %
Track quality 100.0 %
Test CRC 5D80E7ED
Copy CRC 5D80E7ED
Cannot be verified as accurate (confidence 1) [4A4B48E0], AccurateRip returned [F56EA435]
Copy OK
Track 7
Filename C:\Fort Minor - We Major Mixtape (Presented by DJ Green Lantern)\07 - Styles of Beyond , Bleach (Jimi Remix).wav
Peak level 98.8 %
Track quality 100.0 %
Test CRC 7B3E733A
Copy CRC 7B3E733A
Cannot be verified as accurate (confidence 1) [9BDF056B], AccurateRip returned [709C45CC]
Copy OK
Track 8
Filename C:\Fort Minor - We Major Mixtape (Presented by DJ Green Lantern)\08 - Ghostface, M. Shinoda, & Lupe Fiasco , Spraypaint & Inkpens.wav
Peak level 98.8 %
Track quality 100.0 %
Test CRC 76BA2483
Copy CRC 76BA2483
Cannot be verified as accurate (confidence 1) [4B7F4903], AccurateRip returned [B30C2B19]
Copy OK
Track 9
Filename C:\Fort Minor - We Major Mixtape (Presented by DJ Green Lantern)\09 - Fort Minor , Petrified (Doors Remix).wav
Peak level 98.8 %
Track quality 100.0 %
Test CRC FCBD6E57
Copy CRC FCBD6E57
Cannot be verified as accurate (confidence 1) [0BD4F30B], AccurateRip returned [E88ECCE9]
Copy OK
Track 10
Filename C:\Fort Minor - We Major Mixtape (Presented by DJ Green Lantern)\10 - Styles of Beyond , Get It.wav
Peak level 98.8 %
Track quality 100.0 %
Test CRC 1C3303FA
Copy CRC 1C3303FA
Cannot be verified as accurate (confidence 1) [5991FCDE], AccurateRip returned [B771B25D]
Copy OK
Track 11
Filename C:\Fort Minor - We Major Mixtape (Presented by DJ Green Lantern)\11 - Fort Minor Feat. Lupe Fiasco and Holly Brook , Be Somebody.wav
Peak level 98.8 %
Track quality 100.0 %
Test CRC 497F0DE8
Copy CRC 497F0DE8
Cannot be verified as accurate (confidence 1) [5C8AE885], AccurateRip returned [CDD28CA6]
Copy OK
Track 12
Filename C:\Fort Minor - We Major Mixtape (Presented by DJ Green Lantern)\12 - Fort Minor, Styles of Beyond, & Celph Titled , Respect 4 Grandma.wav
Peak level 98.8 %
Track quality 100.0 %
Test CRC 1CD35747
Copy CRC 1CD35747
Cannot be verified as accurate (confidence 1) [EE06BACB], AccurateRip returned [74C22248]
Copy OK
Track 13
Filename C:\Fort Minor - We Major Mixtape (Presented by DJ Green Lantern)\13 - Fort Minor Feat. Sixx John , There They Go (Green Lantern Remix).wav
Peak level 98.8 %
Track quality 100.0 %
Test CRC F23BF9A3
Copy CRC F23BF9A3
Cannot be verified as accurate (confidence 1) [FEB35FCB], AccurateRip returned [AC8E4929]
Copy OK
Track 14
Filename C:\Fort Minor - We Major Mixtape (Presented by DJ Green Lantern)\14 - Apathy, TAK of Styles of Beyond, and Selph Titled , All Night.wav
Peak level 98.8 %
Track quality 100.0 %
Test CRC 64FF85F8
Copy CRC 64FF85F8
Cannot be verified as accurate (confidence 1) [E1B60F47], AccurateRip returned [C6AAB53B]
Copy OK
Track 15
Filename C:\Fort Minor - We Major Mixtape (Presented by DJ Green Lantern)\15 - Linkin Park , Nobody's Listening (Green Lantern Remix).wav
Peak level 98.8 %
Track quality 100.0 %
Test CRC F8D45D50
Copy CRC F8D45D50
Cannot be verified as accurate (confidence 1) [9ADEB4E6], AccurateRip returned [7A1A6E90]
Copy OK
Track 16
Filename C:\Fort Minor - We Major Mixtape (Presented by DJ Green Lantern)\16 - Fort Minor Feat. Styles of Beyond , Cover and Duck.wav
Peak level 98.8 %
Track quality 99.9 %
Test CRC 2BBFF7B0
Copy CRC 2BBFF7B0
Cannot be verified as accurate (confidence 1) [7C3F4E82], AccurateRip returned [D1F76E04]
Copy OK
Track 17
Filename C:\Fort Minor - We Major Mixtape (Presented by DJ Green Lantern)\17 - Fort Minor , Remember the Name (Album Version).wav
Peak level 98.8 %
Track quality 100.0 %
Test CRC 4ED0E67C
Copy CRC 4ED0E67C
Cannot be verified as accurate (confidence 1) [DA475E1C], AccurateRip returned [E034C7AA]
Copy OK
Track 18
Filename C:\Fort Minor - We Major Mixtape (Presented by DJ Green Lantern)\18 - Fort Minor , Petrified (Album Version).wav
Peak level 98.8 %
Track quality 100.0 %
Test CRC 5C518D83
Copy CRC 5C518D83
Cannot be verified as accurate (confidence 1) [4FEE96B3], AccurateRip returned [696C1427]
Copy OK
Track 19
Filename C:\Fort Minor - We Major Mixtape (Presented by DJ Green Lantern)\19 - DJ Green Lantern , Outro.wav
Peak level 98.8 %
Track quality 100.0 %
Test CRC EEB7CF27
Copy CRC EEB7CF27
Cannot be verified as accurate (confidence 1) [A3583B8E], AccurateRip returned [AD72FC21]
Copy OK
No tracks could be verified as accurate
You may have a different pressing from the one(s) in the database
No errors occurred
End of status report
REM GENRE Hip-Hop
REM DATE 2005
REM DISCID 040DEB13
REM COMMENT "ExactAudioCopy v0.99pb3"
PERFORMER "Fort Minor"
TITLE "We Major"
FILE "01 - Green Lantern Intro.wav" wavE
TRACK 01 AUDIO
TITLE "Green Lantern Intro"
PERFORMER "Fort Minor"
INDEX 01 00:00:00
FILE "02 - 100 Degrees.wav" wavE
TRACK 02 AUDIO
TITLE "100 Degrees"
PERFORMER "Fort Minor"
INDEX 01 00:00:00
FILE "03 - Dolla.wav" wavE
TRACK 03 AUDIO
TITLE "Dolla"
PERFORMER "Fort Minor & Styles Of Beyond"
INDEX 01 00:00:00
FILE "04 - Bloc Party.wav" wavE
TRACK 04 AUDIO
TITLE "Bloc Party"
PERFORMER "Apathy, M. Shinoda and Tak of S.O.B."
INDEX 01 00:00:00
FILE "05 - S.C.O.M..wav" wavE
TRACK 05 AUDIO
TITLE "S.C.O.M."
PERFORMER "Ryu of S.O.B., Juelz Santana and Celph Titled"
INDEX 01 00:00:00
FILE "06 - Remember The Name (Funkadelic Remix).wav" wavE
TRACK 06 AUDIO
TITLE "Remember The Name (Funkadelic Remix)"
PERFORMER "Fort Minor feat. Styles Of Beyond"
INDEX 01 00:00:00
FILE "07 - Bleach (Jimi Remix).wav" wavE
TRACK 07 AUDIO
TITLE "Bleach (Jimi Remix)"
PERFORMER "Styles Of Beyond"
INDEX 01 00:00:00
FILE "08 - Spraypaint & Ink Pens.wav" wavE
TRACK 08 AUDIO
TITLE "Spraypaint & Ink Pens"
PERFORMER "Ghostface, M. Shinoda & Lupe Fiasco"
INDEX 01 00:00:00
FILE "09 - Petrified (Doors Remix).wav" wavE
TRACK 09 AUDIO
TITLE "Petrified (Doors Remix)"
PERFORMER "Fort Minor"
INDEX 01 00:00:00
FILE "10 - Get It.wav" wavE
TRACK 10 AUDIO
TITLE "Get It"
PERFORMER "Styles Of Beyond"
INDEX 01 00:00:00
FILE "11 - Be Somebody.wav" wavE
TRACK 11 AUDIO
TITLE "Be Somebody"
PERFORMER "Fort Minor feat. Lupe Fiasco and Holly Brook"
INDEX 01 00:00:00
FILE "12 - Respect 4 Grandma.wav" wavE
TRACK 12 AUDIO
TITLE "Respect 4 Grandma"
PERFORMER "Fort Minor, Styles Of Beyond & Celph Titled"
INDEX 01 00:00:00
FILE "13 - There They Go (Green Lantern Remix).wav" wavE
TRACK 13 AUDIO
TITLE "There They Go (Green Lantern Remix)"
PERFORMER "Fort Minor feat. Sixx John"
INDEX 01 00:00:00
FILE "14 - All Night.wav" wavE
TRACK 14 AUDIO
TITLE "All Night"
PERFORMER "Apathy, Tak of Styles Of Beyond and Celph Titled"
INDEX 01 00:00:00
FILE "15 - Nobody's Listening (Green Lantern Remix).wav" wavE
TRACK 15 AUDIO
TITLE "Nobody's Listening (Green Lantern Remix)"
PERFORMER "Linkin Park"
INDEX 01 00:00:00
FILE "16 - Cover And Duck.wav" wavE
TRACK 16 AUDIO
TITLE "Cover And Duck"
PERFORMER "Fort Minor feat. Styles Of Beyond"
INDEX 01 00:00:00
FILE "17 - Remember The Name (Album Version).wav" wavE
TRACK 17 AUDIO
TITLE "Remember The Name (Album Version)"
PERFORMER "Fort Minor feat. Styles Of Beyond"
INDEX 01 00:00:00
FILE "18 - Petrified (Album Version).wav" wavE
TRACK 18 AUDIO
TITLE "Petrified (Album Version)"
PERFORMER "Fort Minor"
INDEX 01 00:00:00
FILE "19 - Outro.wav" wavE
TRACK 19 AUDIO
TITLE "Outro"
PERFORMER "Fort Minor"
INDEX 01 00:00:00
Promo

Год выпуска диска: 2005
Продолжительность: 00:14:05
Трэклист:
01. Intro
02. Remember The Name
03. Dolla
04. Get It
05. Petrified
Exact Audio Copy V0.99 prebeta 5 from 4. May 2009
EAC extraction logfile from 25. July 2010, 21:18
Fort Minor / Sampler Mixtape
Used drive : Optiarc DVD RW AD-7173A Adapter: 3 ID: 0
Read mode : Secure
Utilize accurate stream : Yes
Defeat audio cache : Yes
Make use of C2 pointers : No
Read offset correction : 48
Overread into Lead-In and Lead-Out : No
Fill up missing offset samples with silence : Yes
Delete leading and trailing silent blocks : No
Null samples used in CRC calculations : Yes
Used interface : Native Win32 interface for Win NT & 2000
Gap handling : Appended to previous track
Used output format : User Defined Encoder
Selected bitrate : 1024 kBit/s
Quality : High
Add ID3 tag : No
Command line compressor : C:\Program Files\Exact Audio Copy\FLAC\FLAC.EXE
Additional command line options : -8 -V -T "ARTIST=%a" -T "TITLE=%t" -T "ALBUM=%g" -T "DATE=%y" -T "TRACKNUMBER=%n" -T "GENRE=%m" -T "COMMENT=EAC FLAC -8" %s
TOC of the extracted CD
Track | Start | Length | Start sector | End sector
---------------------------------------------------------
1 | 0:00.00 | 0:57.17 | 0 | 4291
2 | 0:57.17 | 3:46.02 | 4292 | 21243
3 | 4:43.19 | 2:54.58 | 21244 | 34351
4 | 7:38.02 | 3:07.33 | 34352 | 48409
5 | 10:45.35 | 3:30.26 | 48410 | 64185
Track 1
Filename D:\Media Temp\Music\01 - Intro.wav
Pre-gap length 0:00:02.00
Peak level 98.8 %
Track quality 100.0 %
Test CRC 13BC2549
Copy CRC 13BC2549
Accurately ripped (confidence 1) [DEED2FC3]
Copy OK
Track 2
Filename D:\Media Temp\Music\02 - Remember The Name.wav
Peak level 98.8 %
Track quality 100.0 %
Test CRC DAAA2A73
Copy CRC DAAA2A73
Accurately ripped (confidence 1) [195521FF]
Copy OK
Track 3
Filename D:\Media Temp\Music\03 - Dolla.wav
Pre-gap length 0:00:01.00
Peak level 91.8 %
Track quality 100.0 %
Test CRC DC4EE12F
Copy CRC DC4EE12F
Accurately ripped (confidence 1) [F2E1F6E4]
Copy OK
Track 4
Filename D:\Media Temp\Music\04 - Get It.wav
Peak level 98.8 %
Track quality 100.0 %
Test CRC 613D53AB
Copy CRC 613D53AB
Accurately ripped (confidence 1) [3DB8438F]
Copy OK
Track 5
Filename D:\Media Temp\Music\05 - Petrified.wav
Peak level 98.8 %
Track quality 100.0 %
Test CRC D0FC68A1
Copy CRC D0FC68A1
Accurately ripped (confidence 1) [1C890455]
Copy OK
All tracks accurately ripped
No errors occurred
End of status report
REM GENRE Hip-Hop
REM DATE 2005
REM DISCID 3A035705
REM COMMENT "ExactAudioCopy v0.99pb5"
PERFORMER "Fort Minor"
TITLE "Sampler Mixtape"
FILE "01 - Intro.wav" WAVE
TRACK 01 AUDIO
TITLE "Intro"
PERFORMER "Fort Minor"
INDEX 01 00:00:00
FILE "02 - Remember The Name.wav" WAVE
TRACK 02 AUDIO
TITLE "Remember The Name"
PERFORMER "Fort Minor"
INDEX 01 00:00:00
FILE "03 - Dolla.wav" WAVE
TRACK 03 AUDIO
TITLE "Dolla"
PERFORMER "Fort Minor"
INDEX 01 00:00:00
FILE "04 - Get It.wav" WAVE
TRACK 04 AUDIO
TITLE "Get It"
PERFORMER "Fort Minor"
INDEX 01 00:00:00
FILE "05 - Petrified.wav" WAVE
TRACK 05 AUDIO
TITLE "Petrified"
PERFORMER "Fort Minor"
INDEX 01 00:00:00

Год выпуска диска: 2005
Продолжительность: 00:18:24
Трэклист:
01. Where'd You Go (Album Version)
02. Where'd You Go (Radio Version)
03. Where'd You Go (Instrumental)
04. Where'd You Go (A Cappella)
05. Where'd You Go (Radio A Cappella)
Exact Audio Copy V1.0 beta 1 from 15. November 2010
EAC extraction logfile from 4. February 2011, 17:05
Fort Minor / Where'd You Go (Promo)
Used drive : Optiarc DVD RW AD-7173A Adapter: 3 ID: 0
Read mode : Secure
Utilize accurate stream : Yes
Defeat audio cache : Yes
Make use of C2 pointers : No
Read offset correction : 48
Overread into Lead-In and Lead-Out : No
Fill up missing offset samples with silence : Yes
Delete leading and trailing silent blocks : No
Null samples used in CRC calculations : Yes
Used interface : Native Win32 interface for Win NT & 2000
Gap handling : Appended to previous track
Used output format : User Defined Encoder
Selected bitrate : 1024 kBit/s
Quality : High
Add ID3 tag : No
Command line compressor : C:\Program Files\FLAC\flac.exe
Additional command line options : -8 -V -T "ARTIST=%a" -T "TITLE=%t" -T "ALBUM=%g" -T "DATE=%y" -T "TRACKNUMBER=%n" -T "GENRE=%m" -T "COMMENT=EAC FLAC -8" %s
TOC of the extracted CD
Track | Start | Length | Start sector | End sector
---------------------------------------------------------
1 | 0:00.00 | 3:55.29 | 0 | 17653
2 | 3:55.29 | 3:55.04 | 17654 | 35282
3 | 7:50.33 | 3:57.16 | 35283 | 53073
4 | 11:47.49 | 3:18.74 | 53074 | 67997
5 | 15:06.48 | 3:17.36 | 67998 | 82808
Track 1
Filename D:\Media Temp\Music\01 - Where'd You Go (Album Version).wav
Pre-gap length 0:00:02.00
Peak level 98.8 %
Extraction speed 3.1 X
Track quality 100.0 %
Test CRC E5D56C33
Copy CRC E5D56C33
Track not present in AccurateRip database
Copy OK
Track 2
Filename D:\Media Temp\Music\02 - Where'd You Go (Radio Version).wav
Pre-gap length 0:00:02.00
Peak level 98.8 %
Extraction speed 5.0 X
Track quality 100.0 %
Test CRC C0931ECA
Copy CRC C0931ECA
Track not present in AccurateRip database
Copy OK
Track 3
Filename D:\Media Temp\Music\03 - Where'd You Go (Instrumental).wav
Pre-gap length 0:00:02.00
Peak level 98.8 %
Extraction speed 5.4 X
Track quality 100.0 %
Test CRC 5F15F7F1
Copy CRC 5F15F7F1
Track not present in AccurateRip database
Copy OK
Track 4
Filename D:\Media Temp\Music\04 - Where'd You Go (A Cappella).wav
Pre-gap length 0:00:02.00
Peak level 100.0 %
Extraction speed 5.6 X
Track quality 100.0 %
Test CRC 0A75B3CC
Copy CRC 0A75B3CC
Track not present in AccurateRip database
Copy OK
Track 5
Filename D:\Media Temp\Music\05 - Where'd You Go (Radio A Cappella).wav
Pre-gap length 0:00:02.00
Peak level 100.0 %
Extraction speed 5.9 X
Track quality 100.0 %
Test CRC DFEC634A
Copy CRC DFEC634A
Track not present in AccurateRip database
Copy OK
None of the tracks are present in the AccurateRip database
No errors occurred
End of status report
==== Log checksum F402A08B631EFCCA1A6AF84A066BC9826A9C302B5733E93AD6AE72AE2F5FF714 ====
REM GENRE Hip-Hop
REM DATE 2005
REM DISCID 3C045005
REM COMMENT "ExactAudioCopy v1.0b1"
PERFORMER "Fort Minor"
TITLE "Where'd You Go (Promo)"
FILE "01 - Where'd You Go (Album Version).wav" WAVE
TRACK 01 AUDIO
TITLE "Where'd You Go (Album Version)"
PERFORMER "Fort Minor"
INDEX 01 00:00:00
FILE "02 - Where'd You Go (Radio Version).wav" WAVE
TRACK 02 AUDIO
TITLE "Where'd You Go (Radio Version)"
PERFORMER "Fort Minor"
INDEX 01 00:00:00
FILE "03 - Where'd You Go (Instrumental).wav" WAVE
TRACK 03 AUDIO
TITLE "Where'd You Go (Instrumental)"
PERFORMER "Fort Minor"
INDEX 01 00:00:00
FILE "04 - Where'd You Go (A Cappella).wav" WAVE
TRACK 04 AUDIO
TITLE "Where'd You Go (A Cappella)"
PERFORMER "Fort Minor"
INDEX 01 00:00:00
FILE "05 - Where'd You Go (Radio A Cappella).wav" WAVE
TRACK 05 AUDIO
TITLE "Where'd You Go (Radio A Cappella)"
PERFORMER "Fort Minor"
INDEX 01 00:00:00
Официальный сайт группы: www.fortminor.com
Как можно выбраться из тени, плотной и размером со стадион, группы, которая продала больше 35,000,000 своих альбомов? Если вы Майк Шинода из Linkin Park, ответ прост: излучайте свой собственный свет. Шинода — это половина вокального состава мультиплатинового коллектива Linkin Park. Он, в паре с Честером Беннингтоном, изрыгает повальные хип-хоп читки в связке с не менее интенсивным альтернативным роком. От альбома к альбому, группа заслужила репутацию экспериментаторов, пионеров всего нового, непохожего. Своим первым сольным шагом он хочет показать, что он готов представлять слушателем всё новое и новое.
Шинодовские рэп-корни всё время должны были переплетаться с другими элементами — до настоящего момента. Fort Minor целиком и полностью уникален, неразбавленный, чистый до последней ноты хип-хоп, получивший подпитку от непохожей ни на что другое лирики и музыки. Разнообразие тем песен, стилей и настроений, созданных Майком, делает этот сольный проект много грандиознее.
«The Rising Tied», с нетерпением ожидаемый дебют Fort Minor, будет выпущен лейблом Mashine Shop Recordings/ Warner Bros. 22-го ноября 2005. Главным продюсером альбома был выбран Jay-Z (который вместе с Linkin Park записал mash-альбом «Collision Course»). А в целом, продюссировал альбом сам Шинода, который написал каждый трэк, сыграл буквально на каждом инструменте.
Выбор имени Fort Minor отражает взаимодействие между противоположностями: нечто большое и сильное против маленького и слабого (или мрачного в музыкальном плане). Название альбома — также игра слов. Все приглашённые музыканты, принявшие участие в записи, рассказывает Шинода, сливаются воедино в музыкальном мире. Среди них — Styles of Beyond и Холли Брук наряду с андерграундными рэпперами Common, John Legend, Kenna, Black THought (из группы The Roots).
Майк — одно из стёклышек мозаики Linkin Park. Но желание создавать песни, соотносившие Шиноду с его хип-хоп корнями, позволило ему сначала написать, а потом и записать ряд хип-хоп песен. Поскольку песни мало-помалу начали срастаться в полноценный альбом, Майк захотел сделать его органичным, живым, создавая свои собственные сэмплы и биты в тесном переплетении с «живыми» инструментами. В звучании «The Rising Tied» есть фирменное звучание Linkin Park, но оно более личное, целиком раскрывающее душу одного человека.
Download / Скачать

Хотите скачать бесплатно? Зарегистрируйтесь на сайте (ссылка на регистрацию). Pirat.ca - самый быстрый торрент трекер в рунете!

Как скачивать  ·   Что такое торрент  ·   Рейтинг и ограничения

Amethyst

Гроза морей

27510

Пост 15-Янв-2012 07:21 (спустя 3 часа)

[Q] 

[Профиль]  [ЛС] 

Rumpler

Шкипер

Пост 23-Июн-2012 22:25 (спустя 5 месяцев 8 дней)

[Q] 

Спасибо = Бочку качнул
[Профиль]  [ЛС] 

Pirat38rus

Корсар

Пост 03-Янв-2013 11:37 (спустя 6 месяцев 9 дней)

[Q] 

[Профиль]  [ЛС] 
Показать сообщения:    
Ответить на тему

Текущее время: Сегодня 15:03

Часовой пояс: GMT + 4



Вы не можете начинать темы
Вы не можете отвечать на сообщения
Вы не можете редактировать свои сообщения
Вы не можете удалять свои сообщения
Вы не можете голосовать в опросах
Вы не можете прикреплять файлы к сообщениям
Вы не можете скачивать файлы

Майнать ▼