Каменное сердце [Документальный, SATRip] [ R.G. DOCpiratTV]

Ответить на тему
 
Автор
Сообщение

Пост 24-Ноя-2011 18:33

[Q] 

Степаныч

Каменное сердце
Год выпуска:2009
Производство: Россия
Жанр: Документальный
Продолжительность: 00:44:36
Описание: Камни рождаются в недрах Земли под воздействием колоссального давления и температур, поэтому энергетике и силе любого булыжника, полученным им от самой природы в момент рождения, может позавидовать любой целитель и экстрасенс. Открыв доступ к могуществу камня, можно стать настоящим магом...
Источник/Качество: SATRip
Формат: AVI
Видео кодек: DivX
Аудио кодек: MP3
Видео: MPEG4, DivX 5, 720x540 (4/3), 25.000 fps, 3 000 Kbps (0.309 bit/pixel)
Аудио: MP3, 48.0 KHz, 2 ch, 192 Kbps, CBR
Релиз подготовлен
Формат : DivX
Формат/Информация : Hack of AVI
Размер файла : 1021 Мбайт
Продолжительность : 44 м.
Общий поток : 3202 Кбит/сек
Видео
Идентификатор : 0
Формат : MPEG-4 Visual
Параметр BVOP формата : Нет
Параметр QPel формата : Нет
Параметр GMC формата : Без точки перехода
Параметр матрицы формата : Default (H.263)
Идентификатор кодека : DX50
Идентификатор кодека/Подсказка : DivX 5
Продолжительность : 44 м.
Битрейт : 3000 Кбит/сек
Ширина : 720 пикс.
Высота : 540 пикс.
Соотношение сторон : 4:3
Частота кадров : 25,000 кадр/сек
Цветовое пространство : YUV
Подвыборка цветности : 4:2:0
Битовая глубина : 8 бит
Тип развёртки : Прогрессивная
Метод сжатия : С потерями
Бит/(Пиксели*Кадры) : 0.309
Размер потока : 957 Мбайт (94%)
Заголовок : Video
Библиотека кодирования : DivX 6.6.1.4
Аудио
Идентификатор : 1
Формат : MPEG Audio
Версия формата : Version 1
Профиль формата : Layer 3
Режим : Joint stereo
Расширение режима : MS Stereo
Идентификатор кодека : 55
Идентификатор кодека/Подсказка : MP3
Продолжительность : 44 м.
Вид битрейта : Постоянный
Битрейт : 192 Кбит/сек
Канал(ы) : 2 канала(ов)
Частота : 48,0 КГц
Метод сжатия : С потерями
Размер потока : 61,2 Мбайт (6%)
Выравнивание : Разделение по промежуткам
Продолжительность промежутка : 40 мс. (1,00 видеокадр)
Время предзагрузки промежутка : 500 ms
Заголовок : Audio
Библиотека кодирования : LAME3.96




Download / Скачать

Хотите скачать бесплатно? Зарегистрируйтесь на сайте (ссылка на регистрацию). Pirat.ca - самый быстрый торрент трекер в рунете!

Как скачивать  ·   Что такое торрент  ·   Рейтинг и ограничения

me14

1012

Пост 17-Мар-2012 21:17 (спустя 3 месяца 23 дня)

[Q] 


_________________
Если вы все еще не забанены - это не ваша заслуга, а модераторская недоработка.
[Профиль]  [ЛС] 

agheron

Морской Волк

Пост 05-Янв-2013 02:18 (спустя 9 месяцев 18 дней)

[Q] 

[Профиль]  [ЛС] 
Показать сообщения:    
Ответить на тему

Текущее время: Сегодня 16:12

Часовой пояс: GMT + 4



Вы не можете начинать темы
Вы не можете отвечать на сообщения
Вы не можете редактировать свои сообщения
Вы не можете удалять свои сообщения
Вы не можете голосовать в опросах
Вы не можете прикреплять файлы к сообщениям
Вы не можете скачивать файлы

Майнать ▼