(Jazz) VA - Магия джаза (РД) - 2011 (3 CD) [FLAC, tracks+cue, lossless]

Ответить на тему
 
Автор
Сообщение

Пост 29-Янв-2013 23:48

[Q] 

CHARLI2236

VA - Магия джаза (РД) - 2011 (3CD)
Год выпуска альбома: 2011
Страна: Россия
Жанр: Jazz
Лейбл издания: Ридерз Дайджест
Продолжительность: 3:23:57
Формат: FLAC
Битрейт аудио: lossless
Тип рипа: tracks+.cue
Источник (релизер): диск CDDA
Наличие сканов в содержимом раздачи: да
Трэклист
01 - Hugo Strasser and his Hot Five - Take Five. (4:38)
02 - Toni Tennille - Let's Do It. (3:45)
03 - Tony Bennett - I've Got Five Dollars. (2:38)
04 - Rosemary Clooney & Barry Manilow - How about You. (3:07)
05 - Michael Feinstein - I've Never Been in Love Before. (2:55)
06 - Peter Nero, Piano - On the Street Where You Live. (5:00)
07 - Tony Bennett - Manhattan. (3:21)
08 - Lena Horne - Papa Don't Preach to Me. (2:19)
09 - Stephane Grappelli, his Violin and Orchestra - It Might as well Be Spring. (3:34)
10 - Rosemary Clooney - It's De-Lovely. (3:11)
11 - Charlie Byrd, his Guitar and Orchestra - Nice Work If You Can Get It. (3:09)
12 - Helen Forrest with Harry James and his Orchestra - Call Me Irresponsible. (3:09)
13 - Mel Tormй - Pennies from Heaven. (4:29)
14 - Terry Harrington, his Clarinet and Orchestra - I Don't Want to Walk without You. (3:05)
15 - Connie Haines - Mean to Me. (3:32)
16 - Michael Feinstein - New York, New York. (3:41)
17 - Max Greger, his Sax and Orchestra - Flamingo. (2:39)
18 - Maria Augusta - Satin Doll. (2:11)
19 - Tony Bennett - You Took Advantage of Me. (2:19)
”Отчет ЕАС”
Отчёт EAC об извлечении, выполненном 25. января 2013, 16:16 для диска:
Various / Магия Джаза (CD1) - На Манхэттене (РД)
Дисковод: _NEC DVD_RW ND-4550A Adapter: 0 ID: 1
Режим чтения: Достоверный (C2: нет, Точный поток: да, Отключение кэша: да)
Коррекция смещения при чтении: 48
Способность читать области Lead-in и Lead-out : Нет
Выходной формат: C:\Program Files\FLAC\flac.exe (Пользовательский кодировщик)
128 kBit/s
Дополнительные параметры: -8 -V -T "ARTIST=%a" -T "TITLE=%t" -T "ALBUM=%g" -T "DATE=%y" -T "TRACKNUMBER=%n" -T "GENRE=%m" -T "COMMENT=EAC FLAC -8" %s
Другие параметры:
Заполнение пропущенных сэмплов тишиной : Да
Удаление блоков с тишиной в начале и конце : Нет
Встроенный Win32-интерфейс для Win NT/2000
Трек 1
Имя файла C:\Sergei\новая папка\01 - Hugo Strasser and his Hot Five - Take Five.wav
Длина предзазора 0:00:02.00
Пиковый уровень 36.9 %
Качество трека 100.0 %
CRC теста DE6100F2
CRC копии DE6100F2
Копирование... OK
Трек 2
Имя файла C:\Sergei\новая папка\02 - Toni Tennille - Let's Do It.wav
Длина предзазора 0:00:01.89
Пиковый уровень 99.8 %
Качество трека 99.9 %
CRC теста F18BDCDA
CRC копии F18BDCDA
Копирование... OK
Трек 3
Имя файла C:\Sergei\новая папка\03 - Tony Bennett - I've Got Five Dollars.wav
Длина предзазора 0:00:01.89
Пиковый уровень 72.4 %
Качество трека 99.9 %
CRC теста EBF2DED4
CRC копии EBF2DED4
Копирование... OK
Трек 4
Имя файла C:\Sergei\новая папка\04 - Rosemary Clooney & Barry Manilow - How about You.wav
Длина предзазора 0:00:01.89
Пиковый уровень 97.0 %
Качество трека 100.0 %
CRC теста 5DBC045E
CRC копии 5DBC045E
Копирование... OK
Трек 5
Имя файла C:\Sergei\новая папка\05 - Michael Feinstein - I've Never Been in Love Before.wav
Длина предзазора 0:00:01.89
Пиковый уровень 68.8 %
Качество трека 100.0 %
CRC теста BE0561D1
CRC копии BE0561D1
Копирование... OK
Трек 6
Имя файла C:\Sergei\новая папка\06 - Peter Nero, Piano - On the Street Where You Live.wav
Длина предзазора 0:00:01.89
Пиковый уровень 99.4 %
Качество трека 100.0 %
CRC теста 4647A032
CRC копии 4647A032
Копирование... OK
Трек 7
Имя файла C:\Sergei\новая папка\07 - Tony Bennett - Manhattan.wav
Длина предзазора 0:00:01.89
Пиковый уровень 56.2 %
Качество трека 100.0 %
CRC теста AB37EBA9
CRC копии AB37EBA9
Копирование... OK
Трек 8
Имя файла C:\Sergei\новая папка\08 - Lena Horne - Papa Don't Preach to Me.wav
Длина предзазора 0:00:01.89
Пиковый уровень 100.0 %
Качество трека 100.0 %
CRC теста 0428E19F
CRC копии 0428E19F
Копирование... OK
Трек 9
Имя файла C:\Sergei\новая папка\09 - Stephane Grappelli, his Violin and Orchestra - It Might as well Be Spring.wav
Длина предзазора 0:00:01.89
Пиковый уровень 72.1 %
Качество трека 100.0 %
CRC теста 4C80634B
CRC копии 4C80634B
Копирование... OK
Трек 10
Имя файла C:\Sergei\новая папка\10 - Rosemary Clooney - It's De-Lovely.wav
Длина предзазора 0:00:01.89
Пиковый уровень 88.8 %
Качество трека 100.0 %
CRC теста B3376629
CRC копии B3376629
Копирование... OK
Трек 11
Имя файла C:\Sergei\новая папка\11 - Charlie Byrd, his Guitar and Orchestra - Nice Work If You Can Get It.wav
Длина предзазора 0:00:01.89
Пиковый уровень 92.1 %
Качество трека 100.0 %
CRC теста 490FE611
CRC копии 490FE611
Копирование... OK
Трек 12
Имя файла C:\Sergei\новая папка\12 - Helen Forrest with Harry James and his Orchestra - Call Me Irresponsible.wav
Длина предзазора 0:00:01.89
Пиковый уровень 89.1 %
Качество трека 100.0 %
CRC теста 15DB7296
CRC копии 15DB7296
Копирование... OK
Трек 13
Имя файла C:\Sergei\новая папка\13 - Mel Tormй - Pennies from Heaven.wav
Длина предзазора 0:00:01.89
Пиковый уровень 86.7 %
Качество трека 100.0 %
CRC теста 44ACF6A4
CRC копии 44ACF6A4
Копирование... OK
Трек 14
Имя файла C:\Sergei\новая папка\14 - Terry Harrington, his Clarinet and Orchestra - I Don't Want to Walk without You.wav
Длина предзазора 0:00:01.89
Пиковый уровень 76.4 %
Качество трека 100.0 %
CRC теста BFCA71D2
CRC копии BFCA71D2
Копирование... OK
Трек 15
Имя файла C:\Sergei\новая папка\15 - Connie Haines - Mean to Me.wav
Длина предзазора 0:00:01.89
Пиковый уровень 92.1 %
Качество трека 100.0 %
CRC теста 9648C96B
CRC копии 9648C96B
Копирование... OK
Трек 16
Имя файла C:\Sergei\новая папка\16 - Michael Feinstein - New York, New York.wav
Длина предзазора 0:00:01.89
Пиковый уровень 81.6 %
Качество трека 99.9 %
CRC теста 5775F842
CRC копии 5775F842
Копирование... OK
Трек 17
Имя файла C:\Sergei\новая папка\17 - Max Greger, his Sax and Orchestra - Flamingo.wav
Длина предзазора 0:00:01.89
Пиковый уровень 75.2 %
Качество трека 100.0 %
CRC теста F319DB60
CRC копии F319DB60
Копирование... OK
Трек 18
Имя файла C:\Sergei\новая папка\18 - Maria Augusta - Satin Doll.wav
Длина предзазора 0:00:01.89
Пиковый уровень 73.5 %
Качество трека 100.0 %
CRC теста D6388D50
CRC копии D6388D50
Копирование... OK
Трек 19
Имя файла C:\Sergei\новая папка\19 - Tony Bennett - You Took Advantage of Me.wav
Длина предзазора 0:00:01.89
Пиковый уровень 67.6 %
Качество трека 100.0 %
CRC теста ECC9CC5C
CRC копии ECC9CC5C
Копирование... OK
Ошибок не произошло
Конец отчёта
"Non-compilant CUE"
REM GENRE Jazz
REM DATE 2011
REM DISCID F60EBA13
REM COMMENT "ExactAudioCopy v0.95b3"
PERFORMER "Various"
TITLE "Магия Джаза (CD1) - На Манхэттене (РД)"
FILE "01 - Hugo Strasser and his Hot Five - Take Five.wav" WAVE
TRACK 01 AUDIO
TITLE "Take Five"
PERFORMER "Hugo Strasser and his Hot Five"
INDEX 01 00:00:00
TRACK 02 AUDIO
TITLE "Let's Do It"
PERFORMER "Toni Tennille"
INDEX 00 04:36:21
FILE "02 - Toni Tennille - Let's Do It.wav" WAVE
INDEX 01 00:00:00
TRACK 03 AUDIO
TITLE "I've Got Five Dollars"
PERFORMER "Tony Bennett"
INDEX 00 03:43:66
FILE "03 - Tony Bennett - I've Got Five Dollars.wav" WAVE
INDEX 01 00:00:00
TRACK 04 AUDIO
TITLE "How about You"
PERFORMER "Rosemary Clooney & Barry Manilow"
INDEX 00 02:36:35
FILE "04 - Rosemary Clooney & Barry Manilow - How about You.wav" WAVE
INDEX 01 00:00:00
TRACK 05 AUDIO
TITLE "I've Never Been in Love Before"
PERFORMER "Michael Feinstein"
INDEX 00 03:05:36
FILE "05 - Michael Feinstein - I've Never Been in Love Before.wav" WAVE
INDEX 01 00:00:00
TRACK 06 AUDIO
TITLE "On the Street Where You Live"
PERFORMER "Peter Nero, Piano"
INDEX 00 02:53:69
FILE "06 - Peter Nero, Piano - On the Street Where You Live.wav" WAVE
INDEX 01 00:00:00
TRACK 07 AUDIO
TITLE "Manhattan"
PERFORMER "Tony Bennett"
INDEX 00 04:58:29
FILE "07 - Tony Bennett - Manhattan.wav" WAVE
INDEX 01 00:00:00
TRACK 08 AUDIO
TITLE "Papa Don't Preach to Me"
PERFORMER "Lena Horne"
INDEX 00 03:19:21
FILE "08 - Lena Horne - Papa Don't Preach to Me.wav" WAVE
INDEX 01 00:00:00
TRACK 09 AUDIO
TITLE "It Might as well Be Spring"
PERFORMER "Stephane Grappelli, his Violin and Orchestra"
INDEX 00 02:17:57
FILE "09 - Stephane Grappelli, his Violin and Orchestra - It Might as well Be Spring.wav" WAVE
INDEX 01 00:00:00
TRACK 10 AUDIO
TITLE "It's De-Lovely"
PERFORMER "Rosemary Clooney"
INDEX 00 03:32:60
FILE "10 - Rosemary Clooney - It's De-Lovely.wav" WAVE
INDEX 01 00:00:00
TRACK 11 AUDIO
TITLE "Nice Work If You Can Get It"
PERFORMER "Charlie Byrd, his Guitar and Orchestra"
INDEX 00 03:09:38
FILE "11 - Charlie Byrd, his Guitar and Orchestra - Nice Work If You Can Get It.wav" WAVE
INDEX 01 00:00:00
TRACK 12 AUDIO
TITLE "Call Me Irresponsible"
PERFORMER "Helen Forrest with Harry James and his Orchestra"
INDEX 00 03:08:07
FILE "12 - Helen Forrest with Harry James and his Orchestra - Call Me Irresponsible.wav" WAVE
INDEX 01 00:00:00
TRACK 13 AUDIO
TITLE "Pennies from Heaven"
PERFORMER "Mel Tormй"
INDEX 00 03:07:14
FILE "13 - Mel Tormй - Pennies from Heaven.wav" WAVE
INDEX 01 00:00:00
TRACK 14 AUDIO
TITLE "I Don't Want to Walk without You"
PERFORMER "Terry Harrington, his Clarinet and Orchestra"
INDEX 00 04:27:33
FILE "14 - Terry Harrington, his Clarinet and Orchestra - I Don't Want to Walk without You.wav" WAVE
INDEX 01 00:00:00
TRACK 15 AUDIO
TITLE "Mean to Me"
PERFORMER "Connie Haines"
INDEX 00 03:03:13
FILE "15 - Connie Haines - Mean to Me.wav" WAVE
INDEX 01 00:00:00
TRACK 16 AUDIO
TITLE "New York, New York"
PERFORMER "Michael Feinstein"
INDEX 00 03:30:59
FILE "16 - Michael Feinstein - New York, New York.wav" WAVE
INDEX 01 00:00:00
TRACK 17 AUDIO
TITLE "Flamingo"
PERFORMER "Max Greger, his Sax and Orchestra"
INDEX 00 03:39:18
FILE "17 - Max Greger, his Sax and Orchestra - Flamingo.wav" WAVE
INDEX 01 00:00:00
TRACK 18 AUDIO
TITLE "Satin Doll"
PERFORMER "Maria Augusta"
INDEX 00 02:38:04
FILE "18 - Maria Augusta - Satin Doll.wav" WAVE
INDEX 01 00:00:00
TRACK 19 AUDIO
TITLE "You Took Advantage of Me"
PERFORMER "Tony Bennett"
INDEX 00 02:09:13
FILE "19 - Tony Bennett - You Took Advantage of Me.wav" WAVE
INDEX 01 00:00:00
"Лог Audiochecker"
AUDIOCHECKER v2.0 beta (build 457) - by Dester - [email protected]
~~~~~~~~~~~~~~~~~~~~~~~~~~~~~~~~~~
-=== НЕ РЕДАКТИРУЙТЕ ЭТОТ ФАЙЛ! ===-
Путь: ...\CD1 - На Манхэттене
01 -=- 01 - Hugo Strasser and his Hot Five - Take Five.flac -=- CDDA (100%)
02 -=- 02 - Toni Tennille - Let's Do It.flac -=- CDDA (100%)
03 -=- 03 - Tony Bennett - I've Got Five Dollars.flac -=- CDDA (100%)
04 -=- 04 - Rosemary Clooney & Barry Manilow - How about You.flac -=- CDDA (100%)
05 -=- 05 - Michael Feinstein - I've Never Been in Love Before.flac -=- CDDA (100%)
06 -=- 06 - Peter Nero, Piano - On the Street Where You Live.flac -=- CDDA (100%)
07 -=- 07 - Tony Bennett - Manhattan.flac -=- CDDA (100%)
08 -=- 08 - Lena Horne - Papa Don't Preach to Me.flac -=- CDDA (100%)
09 -=- 09 - Stephane Grappelli, his Violin and Orchestra - It Might as well Be Spring.flac -=- CDDA (100%)
10 -=- 10 - Rosemary Clooney - It's De-Lovely.flac -=- CDDA (100%)
11 -=- 11 - Charlie Byrd, his Guitar and Orchestra - Nice Work If You Can Get It.flac -=- CDDA (100%)
12 -=- 12 - Helen Forrest with Harry James and his Orchestra - Call Me Irresponsible.flac -=- CDDA (99%)
13 -=- 13 - Mel Tormй - Pennies from Heaven.flac -=- CDDA (100%)
14 -=- 14 - Terry Harrington, his Clarinet and Orchestra - I Don't Want to Walk without You.flac -=- CDDA (99%)
15 -=- 15 - Connie Haines - Mean to Me.flac -=- CDDA (100%)
16 -=- 16 - Michael Feinstein - New York, New York.flac -=- CDDA (100%)
17 -=- 17 - Max Greger, his Sax and Orchestra - Flamingo.flac -=- CDDA (100%)
18 -=- 18 - Maria Augusta - Satin Doll.flac -=- CDDA (100%)
19 -=- 19 - Tony Bennett - You Took Advantage of Me.flac -=- CDDA (100%)
Сводка 99,89% CDDA
215974452
Трэклист
01 - Rosemary Clooney with the Count Basie Orchestra - I Got Rhythm. (4:11)
02 - Bob Crosby, his Trumpet and Orchestra - Mame. (3:04)
03 - The Fapy Lafertin Quintet - Ice Cream. (2:19)
04 - Tony Bennett - The Lady Is a Tramp. (2:32)
05 - Rosemary Clooney - Anything Goes. (3:04)
06 - Michael Feinstein - Johnny One Note. (2:29)
07 - Stephane Grappelli, his Violin and Orchestra - I'm Coming, Virginia. (2:54)
08 - The Monty Alexander Trio - I Want To Be Happy. (2:39)
09 - Roby Lakatos & his Gypsy Band - It Don't Mean a Thing. (4:56)
10 - Harry James, his Trumpet and Orchestra - Back Beat Boogie. (2:35)
11 - Bill Ramsey - St.Louis Blues. (5:21)
12 - Tania Maria - Chiclete Com Banana. (6:02)
13 - Bob Crosby, his Trumpet and Orchestra - Java. (1:58)
14 - Rosemary Clooney - Goody Goody. (3:26)
15 - Tony Bennett - Mountain Greenery. (2:59)
16 - Rosemary Clooney - My Heart Belongs To Daddy. (4:13)
17 - Mel Tormй - Love Wallked In. (3:33)
18 - Michael Feinstein - Girl Talk. (5:10)
19 - Kenny Ball - Midnight In Moscow. (2:55)
20 - Hugo Strasser and his Hot Five - Jumpin' At The Woodside. (3:48)
21 - Rosemary Clooney - Fascinating Rhythm. (2:53)
”Отчет ЕАС”
Отчёт EAC об извлечении, выполненном 25. января 2013, 17:08 для диска:
Various / Магия Джаза (CD2) - В ритме джаза (РД)
Дисковод: _NEC DVD_RW ND-4550A Adapter: 0 ID: 1
Режим чтения: Достоверный (C2: нет, Точный поток: да, Отключение кэша: да)
Коррекция смещения при чтении: 48
Способность читать области Lead-in и Lead-out : Нет
Выходной формат: C:\Program Files\FLAC\flac.exe (Пользовательский кодировщик)
128 kBit/s
Дополнительные параметры: -8 -V -T "ARTIST=%a" -T "TITLE=%t" -T "ALBUM=%g" -T "DATE=%y" -T "TRACKNUMBER=%n" -T "GENRE=%m" -T "COMMENT=EAC FLAC -8" %s
Другие параметры:
Заполнение пропущенных сэмплов тишиной : Да
Удаление блоков с тишиной в начале и конце : Нет
Встроенный Win32-интерфейс для Win NT/2000
Трек 1
Имя файла C:\Sergei\новая папка\01 - Rosemary Clooney with the Count Basie Orchestra - I Got Rhythm.wav
Длина предзазора 0:00:02.00
Пиковый уровень 96.8 %
Качество трека 100.0 %
CRC теста 774CC9EF
CRC копии 774CC9EF
Копирование... OK
Трек 2
Имя файла C:\Sergei\новая папка\02 - Bob Crosby, his Trumpet and Orchestra - Mame.wav
Длина предзазора 0:00:01.89
Пиковый уровень 90.0 %
Качество трека 100.0 %
CRC теста F6A53119
CRC копии F6A53119
Копирование... OK
Трек 3
Имя файла C:\Sergei\новая папка\03 - The Fapy Lafertin Quintet - Ice Cream.wav
Длина предзазора 0:00:01.89
Пиковый уровень 55.7 %
Качество трека 100.0 %
CRC теста 45F609BA
CRC копии 45F609BA
Копирование... OK
Трек 4
Имя файла C:\Sergei\новая папка\04 - Tony Bennett - The Lady Is a Tramp.wav
Длина предзазора 0:00:01.89
Пиковый уровень 76.7 %
Качество трека 100.0 %
CRC теста F39A56C3
CRC копии F39A56C3
Копирование... OK
Трек 5
Имя файла C:\Sergei\новая папка\05 - Rosemary Clooney - Anything Goes.wav
Длина предзазора 0:00:01.89
Пиковый уровень 99.7 %
Качество трека 100.0 %
CRC теста 595172F5
CRC копии 595172F5
Копирование... OK
Трек 6
Имя файла C:\Sergei\новая папка\06 - Michael Feinstein - Johnny One Note.wav
Длина предзазора 0:00:01.89
Пиковый уровень 85.2 %
Качество трека 100.0 %
CRC теста 68A6AB7F
CRC копии 68A6AB7F
Копирование... OK
Трек 7
Имя файла C:\Sergei\новая папка\07 - Stephane Grappelli, his Violin and Orchestra - I'm Coming, Virginia.wav
Длина предзазора 0:00:01.89
Пиковый уровень 79.8 %
Качество трека 99.9 %
CRC теста ABC4F260
CRC копии ABC4F260
Копирование... OK
Трек 8
Имя файла C:\Sergei\новая папка\08 - The Monty Alexander Trio - I Want To Be Happy.wav
Длина предзазора 0:00:01.89
Пиковый уровень 92.5 %
Качество трека 99.9 %
CRC теста 76573E1F
CRC копии 76573E1F
Копирование... OK
Трек 9
Имя файла C:\Sergei\новая папка\09 - Roby Lakatos & his Gypsy Band - It Don't Mean a Thing.wav
Длина предзазора 0:00:01.89
Пиковый уровень 95.0 %
Качество трека 100.0 %
CRC теста 6910F8BF
CRC копии 6910F8BF
Копирование... OK
Трек 10
Имя файла C:\Sergei\новая папка\10 - Harry James, his Trumpet and Orchestra - Back Beat Boogie.wav
Длина предзазора 0:00:01.89
Пиковый уровень 81.1 %
Качество трека 100.0 %
CRC теста AA34751F
CRC копии AA34751F
Копирование... OK
Трек 11
Имя файла C:\Sergei\новая папка\11 - Bill Ramsey - St.Louis Blues.wav
Длина предзазора 0:00:01.89
Пиковый уровень 64.7 %
Качество трека 100.0 %
CRC теста 456BCD7A
CRC копии 456BCD7A
Копирование... OK
Трек 12
Имя файла C:\Sergei\новая папка\12 - Tania Maria - Chiclete Com Banana.wav
Длина предзазора 0:00:01.89
Пиковый уровень 75.1 %
Качество трека 100.0 %
CRC теста ECF228C7
CRC копии ECF228C7
Копирование... OK
Трек 13
Имя файла C:\Sergei\новая папка\13 - Bob Crosby, his Trumpet and Orchestra - Java.wav
Длина предзазора 0:00:01.89
Пиковый уровень 81.8 %
Качество трека 100.0 %
CRC теста 612D7A3E
CRC копии 612D7A3E
Копирование... OK
Трек 14
Имя файла C:\Sergei\новая папка\14 - Rosemary Clooney - Goody Goody.wav
Длина предзазора 0:00:01.89
Пиковый уровень 86.1 %
Качество трека 100.0 %
CRC теста 1E0B2A2A
CRC копии 1E0B2A2A
Копирование... OK
Трек 15
Имя файла C:\Sergei\новая папка\15 - Tony Bennett - Mountain Greenery.wav
Длина предзазора 0:00:01.89
Пиковый уровень 56.2 %
Качество трека 100.0 %
CRC теста 82CDEFB1
CRC копии 82CDEFB1
Копирование... OK
Трек 16
Имя файла C:\Sergei\новая папка\16 - Rosemary Clooney - My Heart Belongs To Daddy.wav
Длина предзазора 0:00:01.89
Пиковый уровень 98.7 %
Качество трека 100.0 %
CRC теста A5A2E1C2
CRC копии A5A2E1C2
Копирование... OK
Трек 17
Имя файла C:\Sergei\новая папка\17 - Mel Tormй - Love Wallked In.wav
Длина предзазора 0:00:01.89
Пиковый уровень 99.7 %
Качество трека 100.0 %
CRC теста 954D524F
CRC копии 954D524F
Копирование... OK
Трек 18
Имя файла C:\Sergei\новая папка\18 - Michael Feinstein - Girl Talk.wav
Длина предзазора 0:00:01.89
Пиковый уровень 79.6 %
Качество трека 100.0 %
CRC теста B0AC2962
CRC копии B0AC2962
Копирование... OK
Трек 19
Имя файла C:\Sergei\новая папка\19 - Kenny Ball - Midnight In Moscow.wav
Длина предзазора 0:00:01.89
Пиковый уровень 84.1 %
Качество трека 100.0 %
CRC теста 29150C4A
CRC копии 29150C4A
Копирование... OK
Трек 20
Имя файла C:\Sergei\новая папка\20 - Hugo Strasser and his Hot Five - Jumpin' At The Woodside.wav
Длина предзазора 0:00:01.88
Пиковый уровень 34.3 %
Качество трека 100.0 %
CRC теста B3BDFFBB
CRC копии B3BDFFBB
Копирование... OK
Трек 21
Имя файла C:\Sergei\новая папка\21 - Rosemary Clooney - Fascinating Rhythm.wav
Длина предзазора 0:00:01.89
Пиковый уровень 67.1 %
Качество трека 100.0 %
CRC теста C72E08F1
CRC копии C72E08F1
Копирование... OK
Ошибок не произошло
Конец отчёта
"Non-compilant CUE"
REM GENRE Jazz
REM DATE 2011
REM DISCID 3E112615
REM COMMENT "ExactAudioCopy v0.95b3"
PERFORMER "Various"
TITLE "Магия Джаза (CD2) - В ритме джаза (РД)"
FILE "01 - Rosemary Clooney with the Count Basie Orchestra - I Got Rhythm.wav" WAVE
TRACK 01 AUDIO
TITLE "I Got Rhythm"
PERFORMER "Rosemary Clooney with the Count Basie Orchestra"
INDEX 01 00:00:00
TRACK 02 AUDIO
TITLE "Mame"
PERFORMER "Bob Crosby, his Trumpet and Orchestra"
INDEX 00 04:09:62
FILE "02 - Bob Crosby, his Trumpet and Orchestra - Mame.wav" WAVE
INDEX 01 00:00:00
TRACK 03 AUDIO
TITLE "Ice Cream"
PERFORMER "The Fapy Lafertin Quintet"
INDEX 00 03:02:74
FILE "03 - The Fapy Lafertin Quintet - Ice Cream.wav" WAVE
INDEX 01 00:00:00
TRACK 04 AUDIO
TITLE "The Lady Is a Tramp"
PERFORMER "Tony Bennett"
INDEX 00 02:17:70
FILE "04 - Tony Bennett - The Lady Is a Tramp.wav" WAVE
INDEX 01 00:00:00
TRACK 05 AUDIO
TITLE "Anything Goes"
PERFORMER "Rosemary Clooney"
INDEX 00 02:31:05
FILE "05 - Rosemary Clooney - Anything Goes.wav" WAVE
INDEX 01 00:00:00
TRACK 06 AUDIO
TITLE "Johnny One Note"
PERFORMER "Michael Feinstein"
INDEX 00 03:02:16
FILE "06 - Michael Feinstein - Johnny One Note.wav" WAVE
INDEX 01 00:00:00
TRACK 07 AUDIO
TITLE "I'm Coming, Virginia"
PERFORMER "Stephane Grappelli, his Violin and Orchestra"
INDEX 00 02:27:48
FILE "07 - Stephane Grappelli, his Violin and Orchestra - I'm Coming, Virginia.wav" WAVE
INDEX 01 00:00:00
TRACK 08 AUDIO
TITLE "I Want To Be Happy"
PERFORMER "The Monty Alexander Trio"
INDEX 00 02:52:57
FILE "08 - The Monty Alexander Trio - I Want To Be Happy.wav" WAVE
INDEX 01 00:00:00
TRACK 09 AUDIO
TITLE "It Don't Mean a Thing"
PERFORMER "Roby Lakatos & his Gypsy Band"
INDEX 00 02:37:13
FILE "09 - Roby Lakatos & his Gypsy Band - It Don't Mean a Thing.wav" WAVE
INDEX 01 00:00:00
TRACK 10 AUDIO
TITLE "Back Beat Boogie"
PERFORMER "Harry James, his Trumpet and Orchestra"
INDEX 00 04:54:33
FILE "10 - Harry James, his Trumpet and Orchestra - Back Beat Boogie.wav" WAVE
INDEX 01 00:00:00
TRACK 11 AUDIO
TITLE "St.Louis Blues"
PERFORMER "Bill Ramsey"
INDEX 00 02:33:42
FILE "11 - Bill Ramsey - St.Louis Blues.wav" WAVE
INDEX 01 00:00:00
TRACK 12 AUDIO
TITLE "Chiclete Com Banana"
PERFORMER "Tania Maria"
INDEX 00 05:19:50
FILE "12 - Tania Maria - Chiclete Com Banana.wav" WAVE
INDEX 01 00:00:00
TRACK 13 AUDIO
TITLE "Java"
PERFORMER "Bob Crosby, his Trumpet and Orchestra"
INDEX 00 06:00:26
FILE "13 - Bob Crosby, his Trumpet and Orchestra - Java.wav" WAVE
INDEX 01 00:00:00
TRACK 14 AUDIO
TITLE "Goody Goody"
PERFORMER "Rosemary Clooney"
INDEX 00 01:56:43
FILE "14 - Rosemary Clooney - Goody Goody.wav" WAVE
INDEX 01 00:00:00
TRACK 15 AUDIO
TITLE "Mountain Greenery"
PERFORMER "Tony Bennett"
INDEX 00 03:24:32
FILE "15 - Tony Bennett - Mountain Greenery.wav" WAVE
INDEX 01 00:00:00
TRACK 16 AUDIO
TITLE "My Heart Belongs To Daddy"
PERFORMER "Rosemary Clooney"
INDEX 00 02:57:22
FILE "16 - Rosemary Clooney - My Heart Belongs To Daddy.wav" WAVE
INDEX 01 00:00:00
TRACK 17 AUDIO
TITLE "Love Wallked In"
PERFORMER "Mel Tormй"
INDEX 00 04:11:14
FILE "17 - Mel Tormй - Love Wallked In.wav" WAVE
INDEX 01 00:00:00
TRACK 18 AUDIO
TITLE "Girl Talk"
PERFORMER "Michael Feinstein"
INDEX 00 03:31:55
FILE "18 - Michael Feinstein - Girl Talk.wav" WAVE
INDEX 01 00:00:00
TRACK 19 AUDIO
TITLE "Midnight In Moscow"
PERFORMER "Kenny Ball"
INDEX 00 05:08:30
FILE "19 - Kenny Ball - Midnight In Moscow.wav" WAVE
INDEX 01 00:00:00
TRACK 20 AUDIO
TITLE "Jumpin' At The Woodside"
PERFORMER "Hugo Strasser and his Hot Five"
INDEX 00 02:53:45
FILE "20 - Hugo Strasser and his Hot Five - Jumpin' At The Woodside.wav" WAVE
INDEX 01 00:00:00
TRACK 21 AUDIO
TITLE "Fascinating Rhythm"
PERFORMER "Rosemary Clooney"
INDEX 00 03:46:26
FILE "21 - Rosemary Clooney - Fascinating Rhythm.wav" WAVE
INDEX 01 00:00:00
"Лог Audiochecker"
AUDIOCHECKER v2.0 beta (build 457) - by Dester - [email protected]
~~~~~~~~~~~~~~~~~~~~~~~~~~~~~~~~~~
-=== НЕ РЕДАКТИРУЙТЕ ЭТОТ ФАЙЛ! ===-
Путь: ...\CD2 - В ритме джаза
01 -=- 01 - Rosemary Clooney with the Count Basie Orchestra - I Got Rhythm.flac -=- CDDA (100%)
02 -=- 02 - Bob Crosby, his Trumpet and Orchestra - Mame.flac -=- CDDA (100%)
03 -=- 03 - The Fapy Lafertin Quintet - Ice Cream.flac -=- CDDA (100%)
04 -=- 04 - Tony Bennett - The Lady Is a Tramp.flac -=- CDDA (100%)
05 -=- 05 - Rosemary Clooney - Anything Goes.flac -=- CDDA (99%)
06 -=- 06 - Michael Feinstein - Johnny One Note.flac -=- CDDA (100%)
07 -=- 07 - Stephane Grappelli, his Violin and Orchestra - I'm Coming, Virginia.flac -=- CDDA (100%)
08 -=- 08 - The Monty Alexander Trio - I Want To Be Happy.flac -=- CDDA (100%)
09 -=- 09 - Roby Lakatos & his Gypsy Band - It Don't Mean a Thing.flac -=- CDDA (100%)
10 -=- 10 - Harry James, his Trumpet and Orchestra - Back Beat Boogie.flac -=- CDDA (100%)
11 -=- 11 - Bill Ramsey - St.Louis Blues.flac -=- CDDA (100%)
12 -=- 12 - Tania Maria - Chiclete Com Banana.flac -=- CDDA (100%)
13 -=- 13 - Bob Crosby, his Trumpet and Orchestra - Java.flac -=- CDDA (100%)
14 -=- 14 - Rosemary Clooney - Goody Goody.flac -=- CDDA (100%)
15 -=- 15 - Tony Bennett - Mountain Greenery.flac -=- CDDA (100%)
16 -=- 16 - Rosemary Clooney - My Heart Belongs To Daddy.flac -=- CDDA (100%)
17 -=- 17 - Mel Tormй - Love Wallked In.flac -=- CDDA (100%)
18 -=- 18 - Michael Feinstein - Girl Talk.flac -=- CDDA (99%)
19 -=- 19 - Kenny Ball - Midnight In Moscow.flac -=- CDDA (100%)
20 -=- 20 - Hugo Strasser and his Hot Five - Jumpin' At The Woodside.flac -=- CDDA (100%)
21 -=- 21 - Rosemary Clooney - Fascinating Rhythm.flac -=- CDDA (99%)
Сводка 99,86% CDDA
21728676
Трэклист
01 - Harlem Nocturne - Harlem Nocturne. (3:01)
02 - Come Rain or Come Shine - Come Rain or Come Shine. (3:19)
03 - Why Shouldn't I - Why Shouldn't I . (4:46)
04 - My Funny Valentine - My Funny Valentine. (5:05)
05 - I Could Write a Book - I Could Write a Book. (2:56)
06 - Misty - Misty. (3:26)
07 - Day Dream - Day Dream. (4:38)
08 - Petite Fleur - Petite Fleur. (3:13)
09 - September Song - September Song. (4:19)
10 - Stardust - Stardust. (3:13)
11 - Stormy Weather - Stormy Weather. (5:08)
12 - Have You Met Miss Jones - Have You Met Miss Jones. (3:26)
13 - In a Sentimental Mood - In a Sentimental Mood. (3:23)
14 - Then I'll Be Tired of You - Then I'll Be Tired of You. (4:17)
15 - Marina - Marina. (3:18)
16 - The Man That Got Away - The Man That Got Away. (5:58)
17 - Far Away - Far Away. (4:22)
”Отчет ЕАС”
Отчёт EAC об извлечении, выполненном 28. января 2013, 12:20 для диска:
Various / Магия Джаза (CD3) - Осенний мотив (РД)
Дисковод: _NEC DVD_RW ND-4550A Adapter: 0 ID: 1
Режим чтения: Достоверный (C2: нет, Точный поток: да, Отключение кэша: да)
Коррекция смещения при чтении: 48
Способность читать области Lead-in и Lead-out : Нет
Выходной формат: C:\Program Files\FLAC\flac.exe (Пользовательский кодировщик)
128 kBit/s
Дополнительные параметры: -8 -V -T "ARTIST=%a" -T "TITLE=%t" -T "ALBUM=%g" -T "DATE=%y" -T "TRACKNUMBER=%n" -T "GENRE=%m" -T "COMMENT=EAC FLAC -8" %s
Другие параметры:
Заполнение пропущенных сэмплов тишиной : Да
Удаление блоков с тишиной в начале и конце : Нет
Встроенный Win32-интерфейс для Win NT/2000
Трек 1
Имя файла C:\Sergei\новая папка\01 - Harlem Nocturne - Harlem Nocturne.wav
Длина предзазора 0:00:02.00
Пиковый уровень 48.5 %
Качество трека 100.0 %
CRC теста 7B188C8B
CRC копии 7B188C8B
Копирование... OK
Трек 2
Имя файла C:\Sergei\новая папка\02 - Come Rain or Come Shine - Come Rain or Come Shine.wav
Длина предзазора 0:00:01.88
Пиковый уровень 73.9 %
Качество трека 99.9 %
CRC теста DF99CD58
CRC копии DF99CD58
Копирование... OK
Трек 3
Имя файла C:\Sergei\новая папка\03 - Why Shouldn't I - Why Shouldn't I .wav
Длина предзазора 0:00:01.89
Пиковый уровень 84.0 %
Качество трека 100.0 %
CRC теста 40F5F5CC
CRC копии 40F5F5CC
Копирование... OK
Трек 4
Имя файла C:\Sergei\новая папка\04 - My Funny Valentine - My Funny Valentine.wav
Длина предзазора 0:00:01.89
Пиковый уровень 87.3 %
Качество трека 100.0 %
CRC теста 4C40AE27
CRC копии 4C40AE27
Копирование... OK
Трек 5
Имя файла C:\Sergei\новая папка\05 - I Could Write a Book - I Could Write a Book.wav
Длина предзазора 0:00:01.89
Пиковый уровень 61.9 %
Качество трека 100.0 %
CRC теста 4154EF54
CRC копии 4154EF54
Копирование... OK
Трек 6
Имя файла C:\Sergei\новая папка\06 - Misty - Misty.wav
Длина предзазора 0:00:01.89
Пиковый уровень 57.1 %
Качество трека 100.0 %
CRC теста 785D4A97
CRC копии 785D4A97
Копирование... OK
Трек 7
Имя файла C:\Sergei\новая папка\07 - Day Dream - Day Dream.wav
Длина предзазора 0:00:01.89
Пиковый уровень 99.8 %
Качество трека 100.0 %
CRC теста 72A9EF21
CRC копии 72A9EF21
Копирование... OK
Трек 8
Имя файла C:\Sergei\новая папка\08 - Petite Fleur - Petite Fleur.wav
Длина предзазора 0:00:01.89
Пиковый уровень 80.8 %
Качество трека 100.0 %
CRC теста 8E906126
CRC копии 8E906126
Копирование... OK
Трек 9
Имя файла C:\Sergei\новая папка\09 - September Song - September Song.wav
Длина предзазора 0:00:01.89
Пиковый уровень 99.2 %
Качество трека 100.0 %
CRC теста AE1D2C0C
CRC копии AE1D2C0C
Копирование... OK
Трек 10
Имя файла C:\Sergei\новая папка\10 - Stardust - Stardust.wav
Длина предзазора 0:00:01.89
Пиковый уровень 77.8 %
Качество трека 99.9 %
CRC теста DD921C00
CRC копии DD921C00
Копирование... OK
Трек 11
Имя файла C:\Sergei\новая папка\11 - Stormy Weather - Stormy Weather.wav
Длина предзазора 0:00:01.89
Пиковый уровень 93.2 %
Качество трека 99.9 %
CRC теста 4A26890E
CRC копии 4A26890E
Копирование... OK
Трек 12
Имя файла C:\Sergei\новая папка\12 - Have You Met Miss Jones - Have You Met Miss Jones .wav
Длина предзазора 0:00:01.89
Пиковый уровень 70.7 %
Качество трека 100.0 %
CRC теста 0BC0200A
CRC копии 0BC0200A
Копирование... OK
Трек 13
Имя файла C:\Sergei\новая папка\13 - In a Sentimental Mood - In a Sentimental Mood.wav
Длина предзазора 0:00:01.89
Пиковый уровень 71.0 %
Качество трека 100.0 %
CRC теста 6732F738
CRC копии 6732F738
Копирование... OK
Трек 14
Имя файла C:\Sergei\новая папка\14 - Then I'll Be Tired of You - Then I'll Be Tired of You.wav
Длина предзазора 0:00:01.89
Пиковый уровень 74.7 %
Качество трека 99.9 %
CRC теста 41281F8F
CRC копии 41281F8F
Копирование... OK
Трек 15
Имя файла C:\Sergei\новая папка\15 - Marina - Marina.wav
Длина предзазора 0:00:01.89
Пиковый уровень 37.4 %
Качество трека 100.0 %
CRC теста F496AF65
CRC копии F496AF65
Копирование... OK
Трек 16
Имя файла C:\Sergei\новая папка\16 - The Man That Got Away - The Man That Got Away.wav
Длина предзазора 0:00:01.89
Пиковый уровень 89.2 %
Качество трека 100.0 %
CRC теста 1E4C822D
CRC копии 1E4C822D
Копирование... OK
Трек 17
Имя файла C:\Sergei\новая папка\17 - Far Away - Far Away.wav
Длина предзазора 0:00:01.89
Пиковый уровень 71.8 %
Качество трека 100.0 %
CRC теста C9CCBFCF
CRC копии C9CCBFCF
Копирование... OK
Ошибок не произошло
Конец отчёта
"Non-compilant CUE"
REM GENRE Jazz
REM DATE 2011
REM DISCID 040FED11
REM COMMENT "ExactAudioCopy v0.95b3"
PERFORMER "Various"
TITLE "Магия Джаза (CD3) - Осенний мотив (РД)"
FILE "01 - Harlem Nocturne - Harlem Nocturne.wav" WAVE
TRACK 01 AUDIO
TITLE "Harlem Nocturne"
PERFORMER "Harlem Nocturne"
INDEX 01 00:00:00
TRACK 02 AUDIO
TITLE "Come Rain or Come Shine"
PERFORMER "Come Rain or Come Shine"
INDEX 00 02:59:51
FILE "02 - Come Rain or Come Shine - Come Rain or Come Shine.wav" WAVE
INDEX 01 00:00:00
TRACK 03 AUDIO
TITLE "Why Shouldn't I?"
PERFORMER "Why Shouldn't I?"
INDEX 00 03:17:73
FILE "03 - Why Shouldn't I - Why Shouldn't I .wav" WAVE
INDEX 01 00:00:00
TRACK 04 AUDIO
TITLE "My Funny Valentine"
PERFORMER "My Funny Valentine"
INDEX 00 04:44:31
FILE "04 - My Funny Valentine - My Funny Valentine.wav" WAVE
INDEX 01 00:00:00
TRACK 05 AUDIO
TITLE "I Could Write a Book"
PERFORMER "I Could Write a Book"
INDEX 00 05:03:25
FILE "05 - I Could Write a Book - I Could Write a Book.wav" WAVE
INDEX 01 00:00:00
TRACK 06 AUDIO
TITLE "Misty"
PERFORMER "Misty"
INDEX 00 02:54:51
FILE "06 - Misty - Misty.wav" WAVE
INDEX 01 00:00:00
TRACK 07 AUDIO
TITLE "Day Dream"
PERFORMER "Day Dream"
INDEX 00 03:24:43
FILE "07 - Day Dream - Day Dream.wav" WAVE
INDEX 01 00:00:00
TRACK 08 AUDIO
TITLE "Petite Fleur"
PERFORMER "Petite Fleur"
INDEX 00 04:36:33
FILE "08 - Petite Fleur - Petite Fleur.wav" WAVE
INDEX 01 00:00:00
TRACK 09 AUDIO
TITLE "September Song"
PERFORMER "September Song"
INDEX 00 03:11:70
FILE "09 - September Song - September Song.wav" WAVE
INDEX 01 00:00:00
TRACK 10 AUDIO
TITLE "Stardust"
PERFORMER "Stardust"
INDEX 00 04:17:42
FILE "10 - Stardust - Stardust.wav" WAVE
INDEX 01 00:00:00
TRACK 11 AUDIO
TITLE "Stormy Weather"
PERFORMER "Stormy Weather"
INDEX 00 03:11:53
FILE "11 - Stormy Weather - Stormy Weather.wav" WAVE
INDEX 01 00:00:00
TRACK 12 AUDIO
TITLE "Have You Met Miss Jones?"
PERFORMER "Have You Met Miss Jones?"
INDEX 00 05:06:67
FILE "12 - Have You Met Miss Jones - Have You Met Miss Jones .wav" WAVE
INDEX 01 00:00:00
TRACK 13 AUDIO
TITLE "In a Sentimental Mood"
PERFORMER "In a Sentimental Mood"
INDEX 00 03:24:13
FILE "13 - In a Sentimental Mood - In a Sentimental Mood.wav" WAVE
INDEX 01 00:00:00
TRACK 14 AUDIO
TITLE "Then I'll Be Tired of You"
PERFORMER "Then I'll Be Tired of You"
INDEX 00 03:21:29
FILE "14 - Then I'll Be Tired of You - Then I'll Be Tired of You.wav" WAVE
INDEX 01 00:00:00
TRACK 15 AUDIO
TITLE "Marina"
PERFORMER "Marina"
INDEX 00 04:15:32
FILE "15 - Marina - Marina.wav" WAVE
INDEX 01 00:00:00
TRACK 16 AUDIO
TITLE "The Man That Got Away"
PERFORMER "The Man That Got Away"
INDEX 00 03:16:70
FILE "16 - The Man That Got Away - The Man That Got Away.wav" WAVE
INDEX 01 00:00:00
TRACK 17 AUDIO
TITLE "Far Away"
PERFORMER "Far Away"
INDEX 00 05:56:74
FILE "17 - Far Away - Far Away.wav" WAVE
INDEX 01 00:00:00
"Лог Audiochecker"
AUDIOCHECKER v2.0 beta (build 457) - by Dester - [email protected]
~~~~~~~~~~~~~~~~~~~~~~~~~~~~~~~~~~
-=== НЕ РЕДАКТИРУЙТЕ ЭТОТ ФАЙЛ! ===-
Путь: ...\CD3 - Осенний мотив
01 -=- 01 - Harlem Nocturne - Harlem Nocturne.flac -=- CDDA (100%)
02 -=- 02 - Come Rain or Come Shine - Come Rain or Come Shine.flac -=- CDDA (100%)
03 -=- 03 - Why Shouldn't I - Why Shouldn't I .flac -=- CDDA (100%)
04 -=- 04 - My Funny Valentine - My Funny Valentine.flac -=- CDDA (100%)
05 -=- 05 - I Could Write a Book - I Could Write a Book.flac -=- CDDA (100%)
06 -=- 06 - Misty - Misty.flac -=- CDDA (100%)
07 -=- 07 - Day Dream - Day Dream.flac -=- CDDA (92%)
08 -=- 08 - Petite Fleur - Petite Fleur.flac -=- CDDA (87%)
09 -=- 09 - September Song - September Song.flac -=- CDDA (100%)
10 -=- 10 - Stardust - Stardust.flac -=- CDDA (100%)
11 -=- 11 - Stormy Weather - Stormy Weather.flac -=- CDDA (100%)
12 -=- 12 - Have You Met Miss Jones - Have You Met Miss Jones .flac -=- CDDA (100%)
13 -=- 13 - In a Sentimental Mood - In a Sentimental Mood.flac -=- CDDA (100%)
14 -=- 14 - Then I'll Be Tired of You - Then I'll Be Tired of You.flac -=- CDDA (100%)
15 -=- 15 - Marina - Marina.flac -=- CDDA (100%)
16 -=- 16 - The Man That Got Away - The Man That Got Away.flac -=- CDDA (100%)
17 -=- 17 - Far Away - Far Away.flac -=- CDDA (100%)
Сводка 98,76% CDDA
82275524
Мы помогаем людям, чтобы они, в свою очередь, помогли нам; таким образом, наши услуги сводятся просто к благодеяниям, которые мы загодя оказываем самим себе. (Франсуа де Ларошфуко)
Download / Скачать

Хотите скачать бесплатно? Зарегистрируйтесь на сайте (ссылка на регистрацию). Pirat.ca - самый быстрый торрент трекер в рунете!

Как скачивать  ·   Что такое торрент  ·   Рейтинг и ограничения

Показать сообщения:    
Ответить на тему

Текущее время: Сегодня 21:35

Часовой пояс: GMT + 4



Вы не можете начинать темы
Вы не можете отвечать на сообщения
Вы не можете редактировать свои сообщения
Вы не можете удалять свои сообщения
Вы не можете голосовать в опросах
Вы не можете прикреплять файлы к сообщениям
Вы не можете скачивать файлы

Майнать ▼