(Rap) Twista - Kamikaze [FLAC, tracks+.cue, lossless]

Ответить на тему
 
Автор
Сообщение

Пост 06-Фев-2013 21:21

[Q] 

AnTonyO

Корсар

-Twista - Kamikaze-- Год издания: 2004
Страна: USA
Жанр: Rap
Продолжительность: 01:13:26
Формат: FLAC
Битрейт аудио: lossless
Тип рипа: tracks+.cue
Наличие сканов в содержимом раздачи: да
-________________________________________________________________________________________________________________________________________________ __________________________________________1. Get Me
2. Kill Us All
3. Pimp On (feat. 8 Ball & Too $hort)
4. Slow Jamz (feat. Kanye West & Jamia Foxx)
5. Overnight Celebrity
6. Still Feels So Good (feat. Jazzy Pha)
7. Drinks
8. Badunkadunk
9. One Last Time
10. So Sexy (feat. R. Kelly)
11. Higher (feat. Ludacris)
12. Snoopin'
13. Like A 24 (feat. T.I. & Liffy Stokes)
14. Hope (feat. Cee-Lo)
15. Sunshine (feat. Anthony Hamilton)
16. Art & Life (Chi-Roc) (feat. Memphis Bleek, Young Chris & Freeway)
17. Ya'll Know (feat. Liffy Stokes) (International Bonus Track)
18. Tattoo (Remix) (feat. Legit Ballaz) (Japanese Release)
Exact Audio Copy V0.99 prebeta 5 from 4. May 2009
EAC extraction logfile from 9. June 2010, 23:15
Twista / Kamikaze
Used drive : MATSHITADVD-RAM UJ870QJ Adapter: 1 ID: 0
Read mode : Secure
Utilize accurate stream : Yes
Defeat audio cache : Yes
Make use of C2 pointers : No
Read offset correction : 102
Overread into Lead-In and Lead-Out : No
Fill up missing offset samples with silence : Yes
Delete leading and trailing silent blocks : No
Null samples used in CRC calculations : Yes
Used interface : Native Win32 interface for Win NT & 2000
Gap handling : Appended to previous track
Used output format : User Defined Encoder
Selected bitrate : 1024 kBit/s
Quality : High
Add ID3 tag : No
Command line compressor : C:\Program Files\Exact Audio Copy\Flac\flac.exe
Additional command line options : -V -8 -T "artist=%a" -T "title=%t" -T "album=%g" -T "date=%y" -T "tracknumber=%n" -T "genre=%m" %s
TOC of the extracted CD
Track | Start | Length | Start sector | End sector
---------------------------------------------------------
1 | 0:00.00 | 3:55.41 | 0 | 17665
2 | 3:55.41 | 3:07.52 | 17666 | 31742
3 | 7:03.18 | 3:59.12 | 31743 | 49679
4 | 11:02.30 | 3:29.44 | 49680 | 65398
5 | 14:31.74 | 3:50.33 | 65399 | 82681
6 | 18:22.32 | 4:05.53 | 82682 | 101109
7 | 22:28.10 | 4:10.46 | 101110 | 119905
8 | 26:38.56 | 4:10.05 | 119906 | 138660
9 | 30:48.61 | 4:51.62 | 138661 | 160547
10 | 35:40.48 | 3:47.70 | 160548 | 177642
11 | 39:28.43 | 3:28.33 | 177643 | 193275
12 | 42:57.01 | 5:17.27 | 193276 | 217077
13 | 48:14.28 | 4:24.06 | 217078 | 236883
14 | 52:38.34 | 4:28.66 | 236884 | 257049
15 | 57:07.25 | 3:40.64 | 257050 | 273613
16 | 60:48.14 | 4:04.59 | 273614 | 291972
17 | 64:52.73 | 3:44.70 | 291973 | 308842
18 | 68:37.68 | 4:58.22 | 308843 | 331214
19 | 76:08.15 | 3:44.60 | 342615 | 359474
Track 1
Filename C:\Users\Joel\Desktop\Downloaded Files\+FLAC Rips+\Twista - 2004 - Kamikaze\01 - Get Me.wav
Pre-gap length 0:00:02.00
Peak level 98.8 %
Track quality 100.0 %
Test CRC ABD5213C
Copy CRC ABD5213C
Track not present in AccurateRip database
Copy OK
Track 2
Filename C:\Users\Joel\Desktop\Downloaded Files\+FLAC Rips+\Twista - 2004 - Kamikaze\02 - Kill Us All.wav
Peak level 99.9 %
Track quality 99.8 %
Test CRC 550F7266
Copy CRC 550F7266
Track not present in AccurateRip database
Copy OK
Track 3
Filename C:\Users\Joel\Desktop\Downloaded Files\+FLAC Rips+\Twista - 2004 - Kamikaze\03 - Pimp On (feat. 8 Ball & Too $hort).wav
Peak level 100.0 %
Track quality 100.0 %
Test CRC 5C040960
Copy CRC 5C040960
Track not present in AccurateRip database
Copy OK
Track 4
Filename C:\Users\Joel\Desktop\Downloaded Files\+FLAC Rips+\Twista - 2004 - Kamikaze\04 - Slow Jamz (feat. Kanye West & Jamia Foxx).wav
Peak level 98.8 %
Track quality 100.0 %
Test CRC 16A08768
Copy CRC 16A08768
Track not present in AccurateRip database
Copy OK
Track 5
Filename C:\Users\Joel\Desktop\Downloaded Files\+FLAC Rips+\Twista - 2004 - Kamikaze\05 - Overnight Celebrity.wav
Peak level 98.8 %
Track quality 99.9 %
Test CRC BE3A341F
Copy CRC BE3A341F
Track not present in AccurateRip database
Copy OK
Track 6
Filename C:\Users\Joel\Desktop\Downloaded Files\+FLAC Rips+\Twista - 2004 - Kamikaze\06 - Still Feels So Good (feat. Jazzy Pha).wav
Peak level 98.8 %
Track quality 99.9 %
Test CRC 461134BF
Copy CRC 461134BF
Track not present in AccurateRip database
Copy OK
Track 7
Filename C:\Users\Joel\Desktop\Downloaded Files\+FLAC Rips+\Twista - 2004 - Kamikaze\07 - Drinks.wav
Peak level 98.8 %
Track quality 100.0 %
Test CRC C2CDF273
Copy CRC C2CDF273
Track not present in AccurateRip database
Copy OK
Track 8
Filename C:\Users\Joel\Desktop\Downloaded Files\+FLAC Rips+\Twista - 2004 - Kamikaze\08 - Badunkadunk.wav
Peak level 96.6 %
Track quality 99.9 %
Test CRC 3BEB9732
Copy CRC 3BEB9732
Track not present in AccurateRip database
Copy OK
Track 9
Filename C:\Users\Joel\Desktop\Downloaded Files\+FLAC Rips+\Twista - 2004 - Kamikaze\09 - One Last Time.wav
Peak level 97.7 %
Track quality 100.0 %
Test CRC EEB37025
Copy CRC EEB37025
Track not present in AccurateRip database
Copy OK
Track 10
Filename C:\Users\Joel\Desktop\Downloaded Files\+FLAC Rips+\Twista - 2004 - Kamikaze\10 - So Sexy (feat. R. Kelly).wav
Peak level 98.8 %
Track quality 100.0 %
Test CRC 916197A4
Copy CRC 916197A4
Track not present in AccurateRip database
Copy OK
Track 11
Filename C:\Users\Joel\Desktop\Downloaded Files\+FLAC Rips+\Twista - 2004 - Kamikaze\11 - Higher (feat. Ludacris).wav
Peak level 98.8 %
Track quality 99.9 %
Test CRC 933A8F6D
Copy CRC 933A8F6D
Track not present in AccurateRip database
Copy OK
Track 12
Filename C:\Users\Joel\Desktop\Downloaded Files\+FLAC Rips+\Twista - 2004 - Kamikaze\12 - Snoopin'.wav
Peak level 99.9 %
Track quality 100.0 %
Test CRC 303D57DA
Copy CRC 303D57DA
Track not present in AccurateRip database
Copy OK
Track 13
Filename C:\Users\Joel\Desktop\Downloaded Files\+FLAC Rips+\Twista - 2004 - Kamikaze\13 - Like A 24 (feat. T.I. & Liffy Stokes).wav
Peak level 99.9 %
Track quality 100.0 %
Test CRC 9ED02B29
Copy CRC 9ED02B29
Track not present in AccurateRip database
Copy OK
Track 14
Filename C:\Users\Joel\Desktop\Downloaded Files\+FLAC Rips+\Twista - 2004 - Kamikaze\14 - Hope (feat. Cee-Lo).wav
Peak level 90.3 %
Track quality 100.0 %
Test CRC 15D65941
Copy CRC 15D65941
Track not present in AccurateRip database
Copy OK
Track 15
Filename C:\Users\Joel\Desktop\Downloaded Files\+FLAC Rips+\Twista - 2004 - Kamikaze\15 - Sunshine (feat. Anthony Hamilton).wav
Peak level 98.8 %
Track quality 100.0 %
Test CRC B8BDF58F
Copy CRC B8BDF58F
Track not present in AccurateRip database
Copy OK
Track 16
Filename C:\Users\Joel\Desktop\Downloaded Files\+FLAC Rips+\Twista - 2004 - Kamikaze\16 - Art & Life (Chi-Roc) (feat. Memphis Bleed, Young Chris & Freeway).wav
Peak level 98.8 %
Track quality 100.0 %
Test CRC DEEA8215
Copy CRC DEEA8215
Track not present in AccurateRip database
Copy OK
Track 17
Filename C:\Users\Joel\Desktop\Downloaded Files\+FLAC Rips+\Twista - 2004 - Kamikaze\17 - Ya'll Know (feat. Liffy Stokes) (International Bonus Track).wav
Peak level 100.0 %
Track quality 100.0 %
Test CRC 02C2F7EB
Copy CRC 02C2F7EB
Track not present in AccurateRip database
Copy OK
Track 18
Filename C:\Users\Joel\Desktop\Downloaded Files\+FLAC Rips+\Twista - 2004 - Kamikaze\18 - Tattoo (Remix) (feat. Legit Ballaz).wav
Peak level 98.8 %
Track quality 100.0 %
Test CRC 1675ECB8
Copy CRC 1675ECB8
Track not present in AccurateRip database
Copy OK
None of the tracks are present in the AccurateRip database
No errors occurred
End of status report
REM GENRE Rap
REM DATE 2004
REM DISCID 0612B913
REM COMMENT "ExactAudioCopy v0.99pb5"
PERFORMER "Twista"
TITLE "Kamikaze"
FILE "Twista - 2004 - Kamikaze\01 - Get Me.wav" WAVE
TRACK 01 AUDIO
TITLE "Get Me"
PERFORMER "Twista"
ISRC USAT20303701
INDEX 01 00:00:00
FILE "Twista - 2004 - Kamikaze\02 - Kill Us All.wav" WAVE
TRACK 02 AUDIO
TITLE "Kill Us All"
PERFORMER "Twista"
ISRC USAT20303703
INDEX 01 00:00:00
FILE "Twista - 2004 - Kamikaze\03 - Pimp On (feat. 8 Ball & Too $hort).wav" WAVE
TRACK 03 AUDIO
TITLE "Pimp On (feat. 8 Ball & Too $hort)"
PERFORMER "Twista"
ISRC USAT20303706
INDEX 01 00:00:00
FILE "Twista - 2004 - Kamikaze\04 - Slow Jamz (feat. Kanye West & Jamia Foxx).wav" WAVE
TRACK 04 AUDIO
TITLE "Slow Jamz (feat. Kanye West & Jamia Foxx)"
PERFORMER "Twista"
ISRC USAT20303708
INDEX 01 00:00:00
FILE "Twista - 2004 - Kamikaze\05 - Overnight Celebrity.wav" WAVE
TRACK 05 AUDIO
TITLE "Overnight Celebrity"
PERFORMER "Twista"
ISRC USAT20303709
INDEX 01 00:00:00
FILE "Twista - 2004 - Kamikaze\06 - Still Feels So Good (feat. Jazzy Pha).wav" WAVE
TRACK 06 AUDIO
TITLE "Still Feels So Good (feat. Jazzy Pha)"
PERFORMER "Twista"
ISRC USAT20303711
INDEX 01 00:00:00
FILE "Twista - 2004 - Kamikaze\07 - Drinks.wav" WAVE
TRACK 07 AUDIO
TITLE "Drinks"
PERFORMER "Twista"
ISRC USAT20303716
INDEX 01 00:00:00
FILE "Twista - 2004 - Kamikaze\08 - Badunkadunk.wav" WAVE
TRACK 08 AUDIO
TITLE "Badunkadunk"
PERFORMER "Twista"
ISRC USAT20303717
INDEX 01 00:00:00
FILE "Twista - 2004 - Kamikaze\09 - One Last Time.wav" WAVE
TRACK 09 AUDIO
TITLE "One Last Time"
PERFORMER "Twista"
ISRC USAT20303720
INDEX 01 00:00:00
FILE "Twista - 2004 - Kamikaze\10 - So Sexy (feat. R. Kelly).wav" WAVE
TRACK 10 AUDIO
TITLE "So Sexy (feat. R. Kelly)"
PERFORMER "Twista"
ISRC USAT20303721
INDEX 01 00:00:00
FILE "Twista - 2004 - Kamikaze\11 - Higher (feat. Ludacris).wav" WAVE
TRACK 11 AUDIO
TITLE "Higher (feat. Ludacris)"
PERFORMER "Twista"
ISRC USAT20303724
INDEX 01 00:00:00
FILE "Twista - 2004 - Kamikaze\12 - Snoopin'.wav" WAVE
TRACK 12 AUDIO
TITLE "Snoopin'"
PERFORMER "Twista"
ISRC USAT20303725
INDEX 01 00:00:00
FILE "Twista - 2004 - Kamikaze\13 - Like A 24 (feat. T.I. & Liffy Stokes).wav" WAVE
TRACK 13 AUDIO
TITLE "Like A 24 (feat. T.I. & Liffy Stokes)"
PERFORMER "Twista"
ISRC USAT20303728
INDEX 01 00:00:00
FILE "Twista - 2004 - Kamikaze\14 - Hope (feat. Cee-Lo).wav" WAVE
TRACK 14 AUDIO
TITLE "Hope (feat. Cee-Lo)"
PERFORMER "Twista"
ISRC USAT20303729
INDEX 01 00:00:00
FILE "Twista - 2004 - Kamikaze\15 - Sunshine (feat. Anthony Hamilton).wav" WAVE
TRACK 15 AUDIO
TITLE "Sunshine (feat. Anthony Hamilton)"
PERFORMER "Twista"
ISRC USAT20303731
INDEX 01 00:00:00
FILE "Twista - 2004 - Kamikaze\16 - Art & Life (Chi-Roc) (feat. Memphis Bleed, Young Chris & Freeway).wav" WAVE
TRACK 16 AUDIO
TITLE "Art & Life (Chi-Roc) (feat. Memphis Bleed, Young Chris & Freeway)"
PERFORMER "Twista"
ISRC USAT20303713
INDEX 01 00:00:00
FILE "Twista - 2004 - Kamikaze\17 - Ya'll Know (feat. Liffy Stokes) (International Bonus Track).wav" WAVE
TRACK 17 AUDIO
TITLE "Ya'll Know (feat. Liffy Stokes) (International Bonus Track)"
PERFORMER "Twista"
ISRC USAT20400065
INDEX 01 00:00:00
FILE "Twista - 2004 - Kamikaze\18 - Tattoo (Remix) (feat. Legit Ballaz).wav" WAVE
TRACK 18 AUDIO
TITLE "Tattoo (Remix) (feat. Legit Ballaz)"
PERFORMER "Twista"
ISRC USAT20201502
INDEX 01 00:00:00
TRACK 19 MODEx/2xxx
TITLE "Track19"
PERFORMER "Twista"
INDEX 00 04:58:22
Download / Скачать

Хотите скачать бесплатно? Зарегистрируйтесь на сайте (ссылка на регистрацию). Pirat.ca - самый быстрый торрент трекер в рунете!

Как скачивать  ·   Что такое торрент  ·   Рейтинг и ограничения

Показать сообщения:    
Ответить на тему

Текущее время: Сегодня 19:35

Часовой пояс: GMT + 4



Вы не можете начинать темы
Вы не можете отвечать на сообщения
Вы не можете редактировать свои сообщения
Вы не можете удалять свои сообщения
Вы не можете голосовать в опросах
Вы не можете прикреплять файлы к сообщениям
Вы не можете скачивать файлы

Майнать ▼