Уважаемый Гость!
Вы можете поддержать проект и зарегистрироваться у наших партнеров - онлайн-стратегия MyLands. При регистрации в игре Вы получите код, который сможете активировать после регистрации на pirat.ca и получить 1000 дублонов.

Ваш код:
8033e48ea0cc20b8e29a4484bf15523784769c0f
 
     

Сергей Болотников - Уроки игры на гитаре - Импровизация [Игра на электрогитаре, DVDRip]

Ответить на тему
 
Автор
Сообщение

Пост 20-Май-2013 08:09

[Q] 

IceZver

Морской Волк

-Сергей Болотников - Уроки игры на гитаре - Импровизация-- Страна: Россия
Тематика: Игра на электрогитаре
Тип раздаваемого материала: Видеоурок
Продолжительность: 01:32:03
Год выпуска: Неизвестно
Язык: Русский
Описание: Обучающее видео, ориентированное на получение навыков импровизации как на классической, так и электрогитаре. Крупноплановая съёмка грифа гитары, медленные повторы, раскрытие самой сути ипровизации. Подойдет как для новичков, так и для бывалых гитаристов.
Сергей Болотников: Тогда, в середине 70-х, живя за "железным занавесом", мы были очарованы новой чужестранной музыкой, и казалось, что не было человека, который, даже не являясь, чокнутым меломаном, не узнал бы "Beatles", "Uriah Heep", "Rainbow". Никто нам эту музыку не навязывал, она действительно была великолепна и воодушевляла нас на создание чего-то своего, искреннего, настоящего!
Тогда ни инструментов в магазинах, ни, тем более, видеошкол не было. Моя бабушка бессильно разводила руками, мол, "рада бы, милок, тебе помочь, да не понимаю сама, как этот Гарри Мур играет свою Гарримурку"! Одним словом, учились всему сами, всё изобретали заново, перенимая друг у друга удачи и находки. Но ушло на это много времени. А жаль... Надеюсь, что у вас это получится быстрее. Настоящее пособие разработано мной и проверено практикой. Будьте внимательны и усердны! Желаю удачи!
Родился в Уфе 24 сентября 1961.
1981 г : создал первую группу "Союз", первый альбом из восьми песен вышел тогда же под тем же названием. После службы в армии остался в Ленинграде.
1985 г : приглашен Владимиром Леви в качестве гитариста в группу "Тамбурин" в совместный тур с поездом "Комсомольская Правда" по Дальнему Востоку: Хабаровск, Комсомольске-на-Амуре, Биробиджан, БАМ.
1986 г : с марта по май является гитаристом группы "Город";
После приглашен в Ленконцерт в группу "Балерина".
1987 г : работал с композитором Виктором Резниковым в группе "Марафон".
1988 -1989 г : работа в "Землянах"; организовал вместе с Владимиром Киселёвым "Санкт-Петербург II".
1992 г : работа с группой "Собрание сочинений" и Михаилом Боярским.
1995 г : записал сольный альбом "СВБ"; создал проект "ОДА".
1996 г : запись альбома "Наказало небо"; участие в записи альбома Владимира Рекшана и группы "Санкт-Петербург" "Лирика капитализма".
1997 г : запись альбома "Облако".
1998 г : запись саундтрека к к/фильму "Сеньора" (Россия - Аргентина, реж. М. Богин); участие в музыкальном форуме "Москва - Jurmala '98".
1999 г : выпуск альбома "Металлические пальцы".
2001 г : участие (соло на гитаре) в полнометражном художественном фильме "Сказ про Федота Стрельца"; запись альбома "Спасибо за то, что вы мне не открыли".
2002 г : концерт "Лучшие гитары России" в БКЗ "Октябрьский" при участии В. Зинчука, И. Романова, И. Смирнова; участие в концерте Л. Луста в программе "Все только начинается...".
2003 г : назвал свою группу "Bolo-Band"; Участие в концерте с
Ken Hensley и симфоническим оркестром под управлением
Р. Мартынова (БКЗ); снятый группой клип "Бомбей" (реж. Александр Анферов), занял 1 место на фестивале клипов "Видео-рок", в номинации "лучший малобюджетный клип"; съёмка клипа "Буэнос-Айрес".
2005 г : участие в концертах Ларисы Луста в БКЗ "Октябрьский";
запись гитарной партии в сериале "Талисман любви", фрагменты которой были с успехом исполнены в сериале "Не родись красивой"; запись альбома группы "Старая Ладога".
2006 г : участие в записи музыки и съёмках клипа Ларисы Луста и Сергея Пенкина «Призрак Оперы» (Э. Ллойда Уэббера).
Качество видео: DVDRip
Формат: avi
Видео кодек: DivX
Аудио кодек: MP3
Видео: Разрешение: 640х480, fps:25.00, битрейт: 921, фактор качества: 0.12 b/px, кодек: DivX(4/5/
Аудио: кол-во каналов: 1, частота дискретизации: 44100 Hz, битрейт: 128 Kbps
Общее
Полное имя : E:\Guitar School - Сергей Болотников - Уроки игры на гитаре - Импровизация.avi
Формат : AVI
Формат/Информация : Audio Video Interleave
Размер файла : 691 Мбайт
Продолжительность : 1 ч. 32 м.
Общий поток : 1049 Кбит/сек
Видео
Идентификатор : 0
Формат : MPEG-4 Visual
Параметр BVOP формата : 1
Параметр QPel формата : Нет
Параметр GMC формата : Без точки перехода
Параметр матрицы формата : Default (H.263)
Режим смешивания : Сжатый битовый поток
Идентификатор кодека : DX50
Идентификатор кодека/Подсказка : DivX 5
Продолжительность : 1 ч. 32 м.
Битрейт : 912 Кбит/сек
Ширина : 640 пикселей
Высота : 480 пикселей
Соотношение сторон : 4:3
Частота кадров : 25,000 кадров/сек
Цветовое пространство : YUV
Субдискретизация насыщенности : 4:2:0
Битовая глубина : 8 бит
Тип развёртки : Прогрессивная
Метод сжатия : С потерями
Бит/(Пиксели*Кадры) : 0.119
Размер потока : 600 Мбайт (87%)
Библиотека кодирования : DivX 5.1.1 (Maupiti) (UTC 2003-11-19)
Аудио
Идентификатор : 1
Формат : MPEG Audio
Версия формата : Version 1
Профиль формата : Layer 3
Идентификатор кодека : 55
Идентификатор кодека/Подсказка : MP3
Продолжительность : 1 ч. 32 м.
Вид битрейта : Постоянный
Битрейт : 128 Кбит/сек
Каналы : 1 канал
Частота : 44,1 КГц
Метод сжатия : С потерями
Размер потока : 84,3 Мбайт (12%)
Выравнивание : Разделение по промежуткам
Продолжительность промежутка : 40 мс. (1,00 видеокадр)
Время предзагрузки промежутка : 500 мс.
Так же рекомендую Джон Петруччи - Игра на гитаре / Warner Bros. Classics. John Petrucci - Rock Discipline [1996, Игра на электрогитаре, DVDRip] VO (пост).
Download / Скачать

Хотите скачать бесплатно? Зарегистрируйтесь на сайте (ссылка на регистрацию). Pirat.ca - самый быстрый торрент трекер в рунете!

Как скачивать  ·   Что такое торрент  ·   Рейтинг и ограничения

Пост 20-Май-2013 17:54 (спустя 9 часов)

Топик был перенесен из форума Видеоуроки (Трюм) в форум Игра на гитаре

erchine
 

Arterius

Штурман

Пост 04-Июн-2013 11:52 (спустя 15 дней)

[Q] 

ну что? Поучимся)
[Профиль]  [ЛС] 
Показать сообщения:    
Ответить на тему

Текущее время: Сегодня 20:17

Часовой пояс: GMT + 4



Вы не можете начинать темы
Вы не можете отвечать на сообщения
Вы не можете редактировать свои сообщения
Вы не можете удалять свои сообщения
Вы не можете голосовать в опросах
Вы не можете прикреплять файлы к сообщениям
Вы не можете скачивать файлы

▼ Вниз