(Rap) Xzibit - Napalm - 2012 [FLAC, tracks+.cue, lossless]

Ответить на тему
 
Автор
Сообщение

Пост 21-Янв-2013 18:43

[Q] 

-B1ack-


Xzibit / Napalm

Год издания: 2012
Страна: US
Жанр: Rap
Продолжительность: 01:12:58
Лейбл издания: Open Bar Entertainment
Источник (релизер): What.CD (Birchton)
Формат:

Битрейт аудио: lossless
Тип рипа: tracks+.cue
Наличие сканов в содержимом раздачи: нет



01. State Of Hip-Hop Vs. Xzibit (Prod. By Beat Butcher)
02. Everything (Prod. By Rick Rock)
03. Dos Equise Feat. RBX
04. Something More Feat. Prodigy
05. Gangsta Gangsta (Prod. By DJ Chill)
06. Forever A G Feat. Wiz Khalifa (Prod. By E. Dan)
07. 1983 Ft. Trena Joiner (Xzibit’s Mom) (Prod. By Insane Wayne)
08. Stand Tall Feat. Slim Da Mobster (Prod. By S1)
09. Spread It Out (Prod. By 21)
10. Up Out The Way Feat. E-40 (Prod. By Rick Rock)
11. Napalm (Prod. By 1500 Or Nothin’) (Drums By Travis Barker; Scratches By Sid (Of Slipknot))
12. Meaning Of Life Feat. Ret. Staff Sargent Shilo Harris (U.S. Army)
13. Louis XIII Feat. King T & Tha Alkaholiks (Prod. By Dr. Dre)
14. Enjoy The Night Feat. David Banner, Wiz Khalifa & Brevi (Prod. By David Banner)
15. Movie Feat. Crooked I, Slim The Mobster & Game (Prod. By Akon)
16. I Came To Kill (Prod. By !llmind)
17. Killer’s Remorse Feat. Bishop Lamont, B-Real & Demrick (Prod. By Focus)
18. 1983 StringAcapella

Exact Audio Copy V1.0 beta 2 from 29. April 2011
EAC extraction logfile from 9. October 2012, 17:59
Xzibit / Napalm
Used drive : ATAPI iHAS124 B Adapter: 1 ID: 1
Read mode : Secure
Utilize accurate stream : Yes
Defeat audio cache : Yes
Make use of C2 pointers : No
Read offset correction : 6
Overread into Lead-In and Lead-Out : No
Fill up missing offset samples with silence : Yes
Delete leading and trailing silent blocks : No
Null samples used in CRC calculations : Yes
Used interface : Native Win32 interface for Win NT & 2000
Gap handling : Appended to previous track
Used output format : User Defined Encoder
Selected bitrate : 768 kBit/s
Quality : High
Add ID3 tag : No
Command line compressor : C:\Program Files (x86)\Exact Audio Copy\FLAC\FLAC.EXE
Additional command line options : -6 -V -T "ARTIST=%artist%" -T "TITLE=%title%" -T "ALBUM=%albumtitle%" -T "DATE=%year%" -T "TRACKNUMBER=%tracknr%" -T "GENRE=%genre%" -T "COMMENT=%comment%" -T "BAND=%albuminterpret%" -T "COMPOSER=%composer%" %haslyrics%--ta
TOC of the extracted CD
Track | Start | Length | Start sector | End sector
---------------------------------------------------------
1 | 0:00.00 | 3:54.60 | 0 | 17609
2 | 3:54.60 | 4:07.41 | 17610 | 36175
3 | 8:02.26 | 4:05.46 | 36176 | 54596
4 | 12:07.72 | 3:42.53 | 54597 | 71299
5 | 15:50.50 | 4:16.19 | 71300 | 90518
6 | 20:06.69 | 3:58.06 | 90519 | 108374
7 | 24:05.00 | 3:47.20 | 108375 | 125419
8 | 27:52.20 | 4:23.73 | 125420 | 145217
9 | 32:16.18 | 3:38.29 | 145218 | 161596
10 | 35:54.47 | 4:23.13 | 161597 | 181334
11 | 40:17.60 | 4:15.27 | 181335 | 200486
12 | 44:33.12 | 4:59.74 | 200487 | 222985
13 | 49:33.11 | 2:43.63 | 222986 | 235273
14 | 52:16.74 | 3:45.72 | 235274 | 252220
15 | 56:02.71 | 5:10.63 | 252221 | 275533
16 | 61:13.59 | 3:38.21 | 275534 | 291904
17 | 64:52.05 | 4:19.24 | 291905 | 311353
18 | 69:11.29 | 3:47.23 | 311354 | 328401
Track 1
Filename D:\Torrents\What\Xzibit - Napalm(2)\01 State of Hip Hop vs. Xzibit.wav
Pre-gap length 0:00:02.00
Peak level 99.1 %
Extraction speed 2.1 X
Track quality 100.0 %
Test CRC FD811D9E
Copy CRC FD811D9E
Track not present in AccurateRip database
Copy OK
Track 2
Filename D:\Torrents\What\Xzibit - Napalm(2)\02 Everything.wav
Peak level 99.3 %
Extraction speed 2.3 X
Track quality 100.0 %
Test CRC 233B633E
Copy CRC 233B633E
Track not present in AccurateRip database
Copy OK
Track 3
Filename D:\Torrents\What\Xzibit - Napalm(2)\03 Dos Equis (ft. The Game & RBX).wav
Peak level 99.1 %
Extraction speed 2.5 X
Track quality 100.0 %
Test CRC 6CB7E2A9
Copy CRC 6CB7E2A9
Track not present in AccurateRip database
Copy OK
Track 4
Filename D:\Torrents\What\Xzibit - Napalm(2)\04 Something More (ft. Prodigy).wav
Peak level 99.1 %
Extraction speed 2.6 X
Track quality 100.0 %
Test CRC C9B84BD7
Copy CRC C9B84BD7
Track not present in AccurateRip database
Copy OK
Track 5
Filename D:\Torrents\What\Xzibit - Napalm(2)\05 Gangsta Gangsta.wav
Peak level 93.6 %
Extraction speed 2.8 X
Track quality 100.0 %
Test CRC E3FB6A7B
Copy CRC E3FB6A7B
Track not present in AccurateRip database
Copy OK
Track 6
Filename D:\Torrents\What\Xzibit - Napalm(2)\06 Forever A G (ft. Wiz Khalifa).wav
Peak level 99.3 %
Extraction speed 2.9 X
Track quality 100.0 %
Test CRC 3141D4FF
Copy CRC 3141D4FF
Track not present in AccurateRip database
Copy OK
Track 7
Filename D:\Torrents\What\Xzibit - Napalm(2)\07 1983 (ft. Trena Joiner).wav
Peak level 99.0 %
Extraction speed 3.0 X
Track quality 100.0 %
Test CRC 73409C0D
Copy CRC 73409C0D
Track not present in AccurateRip database
Copy OK
Track 8
Filename D:\Torrents\What\Xzibit - Napalm(2)\08 Stand Tall (ft. Slim the Mobster).wav
Peak level 99.3 %
Extraction speed 3.2 X
Track quality 100.0 %
Test CRC C7DB9ADD
Copy CRC C7DB9ADD
Track not present in AccurateRip database
Copy OK
Track 9
Filename D:\Torrents\What\Xzibit - Napalm(2)\09 Spread it Out.wav
Peak level 99.1 %
Extraction speed 3.3 X
Track quality 100.0 %
Test CRC 6FB0651A
Copy CRC 6FB0651A
Track not present in AccurateRip database
Copy OK
Track 10
Filename D:\Torrents\What\Xzibit - Napalm(2)\10 Up Out The Way (ft. E-40).wav
Peak level 100.0 %
Extraction speed 3.5 X
Track quality 100.0 %
Test CRC 6AC44F83
Copy CRC 6AC44F83
Track not present in AccurateRip database
Copy OK
Track 11
Filename D:\Torrents\What\Xzibit - Napalm(2)\11 Napalm.wav
Peak level 93.6 %
Extraction speed 3.6 X
Track quality 100.0 %
Test CRC 80AB51B4
Copy CRC 80AB51B4
Track not present in AccurateRip database
Copy OK
Track 12
Filename D:\Torrents\What\Xzibit - Napalm(2)\12 Meaning of Life (ft. Ret. Staff Sgt. Shilo Harris).wav
Peak level 88.4 %
Extraction speed 3.8 X
Track quality 100.0 %
Test CRC 54E24DD8
Copy CRC 54E24DD8
Track not present in AccurateRip database
Copy OK
Track 13
Filename D:\Torrents\What\Xzibit - Napalm(2)\13 Louis XIII (ft. King T & The Alkaholiks).wav
Peak level 99.1 %
Extraction speed 3.5 X
Track quality 100.0 %
Test CRC 320C9602
Copy CRC 320C9602
Track not present in AccurateRip database
Copy OK
Track 14
Filename D:\Torrents\What\Xzibit - Napalm(2)\14 Enjoy the Night (ft. Wiz Khalifa, David Banner & Demrick).wav
Peak level 99.1 %
Extraction speed 3.8 X
Track quality 100.0 %
Test CRC 25FA5772
Copy CRC 25FA5772
Track not present in AccurateRip database
Copy OK
Track 15
Filename D:\Torrents\What\Xzibit - Napalm(2)\15 Movies (ft. The Game, Crooked I, Slim the Mobster & Demrick).wav
Peak level 99.0 %
Extraction speed 4.2 X
Track quality 100.0 %
Test CRC 8EBE04EB
Copy CRC 8EBE04EB
Track not present in AccurateRip database
Copy OK
Track 16
Filename D:\Torrents\What\Xzibit - Napalm(2)\16 I Came to Kill (ft. RBX).wav
Peak level 99.1 %
Extraction speed 4.1 X
Track quality 100.0 %
Test CRC 2F630E20
Copy CRC 2F630E20
Track not present in AccurateRip database
Copy OK
Track 17
Filename D:\Torrents\What\Xzibit - Napalm(2)\17 Killer's Remorse (ft. B-Real, Bishop Lamont & Demrick).wav
Peak level 99.3 %
Extraction speed 3.1 X
Track quality 99.9 %
Test CRC 0B5DD503
Copy CRC 0B5DD503
Track not present in AccurateRip database
Copy OK
Track 18
Filename D:\Torrents\What\Xzibit - Napalm(2)\18 1983 Remix (ft. Trena Joiner).wav
Peak level 93.3 %
Extraction speed 4.3 X
Track quality 100.0 %
Test CRC 1DBD7A0D
Copy CRC 1DBD7A0D
Track not present in AccurateRip database
Copy OK
None of the tracks are present in the AccurateRip database
No errors occurred
End of status report
==== Log checksum F593EF5906A19F3A988F0178FB6B9A663E16F4976843F07054F22798E1C7F9D3 ====
REM GENRE Hip-Hop
REM DATE 2012
REM DISCID 24111A12
REM COMMENT "ExactAudioCopy v1.0b2"
CATALOG 0858597002903
PERFORMER "Xzibit"
TITLE "Napalm"
FILE "01 State of Hip Hop vs. Xzibit.wav" WAVE
TRACK 01 AUDIO
TITLE "State of Hip Hop vs. Xzibit"
PERFORMER "Xzibit"
ISRC USZEG1200700
INDEX 01 00:00:00
FILE "02 Everything.wav" WAVE
TRACK 02 AUDIO
TITLE "Everything"
PERFORMER "Xzibit"
ISRC USZEG1200701
INDEX 01 00:00:00
FILE "03 Dos Equis (ft. The Game & RBX).wav" WAVE
TRACK 03 AUDIO
TITLE "Dos Equis (ft. The Game & RBX)"
PERFORMER "Xzibit"
ISRC USZEG1200702
INDEX 01 00:00:00
FILE "04 Something More (ft. Prodigy).wav" WAVE
TRACK 04 AUDIO
TITLE "Something More (ft. Prodigy)"
PERFORMER "Xzibit"
ISRC USZEG1200703
INDEX 01 00:00:00
FILE "05 Gangsta Gangsta.wav" WAVE
TRACK 05 AUDIO
TITLE "Gangsta Gangsta"
PERFORMER "Xzibit"
ISRC USZEG1200704
INDEX 01 00:00:00
FILE "06 Forever A G (ft. Wiz Khalifa).wav" WAVE
TRACK 06 AUDIO
TITLE "Forever A G (ft. Wiz Khalifa)"
PERFORMER "Xzibit"
ISRC USZEG1200705
INDEX 01 00:00:00
FILE "07 1983 (ft. Trena Joiner).wav" WAVE
TRACK 07 AUDIO
TITLE "1983 (ft. Trena Joiner)"
PERFORMER "Xzibit"
ISRC USZEG1200707
INDEX 01 00:00:00
FILE "08 Stand Tall (ft. Slim the Mobster).wav" WAVE
TRACK 08 AUDIO
TITLE "Stand Tall (ft. Slim the Mobster)"
PERFORMER "Xzibit"
ISRC USZEG1200708
INDEX 01 00:00:00
FILE "09 Spread it Out.wav" WAVE
TRACK 09 AUDIO
TITLE "Spread it Out"
PERFORMER "Xzibit"
ISRC USZEG1200709
INDEX 01 00:00:00
FILE "10 Up Out The Way (ft. E-40).wav" WAVE
TRACK 10 AUDIO
TITLE "Up Out The Way (ft. E-40)"
PERFORMER "Xzibit"
ISRC USZEG1200710
INDEX 01 00:00:00
FILE "11 Napalm.wav" WAVE
TRACK 11 AUDIO
TITLE "Napalm"
PERFORMER "Xzibit"
ISRC USZEG1200711
INDEX 01 00:00:00
FILE "12 Meaning of Life (ft. Ret. Staff Sgt. Shilo Harris).wav" WAVE
TRACK 12 AUDIO
TITLE "Meaning of Life (ft. Ret. Staff Sgt. Shilo Harris)"
PERFORMER "Xzibit"
ISRC USZEG1200712
INDEX 01 00:00:00
FILE "13 Louis XIII (ft. King T & The Alkaholiks).wav" WAVE
TRACK 13 AUDIO
TITLE "Louis XIII (ft. King T & The Alkaholiks)"
PERFORMER "Xzibit"
ISRC USZEG1200713
INDEX 01 00:00:00
FILE "14 Enjoy the Night (ft. Wiz Khalifa, David Banner & Demrick).wav" WAVE
TRACK 14 AUDIO
TITLE "Enjoy the Night (ft. Wiz Khalifa, David Banner & Demrick)"
PERFORMER "Xzibit"
ISRC USZEG1200714
INDEX 01 00:00:00
FILE "15 Movies (ft. The Game, Crooked I, Slim the Mobster & Demrick).wav" WAVE
TRACK 15 AUDIO
TITLE "Movies (ft. The Game, Crooked I, Slim the Mobster & Demrick)"
PERFORMER "Xzibit"
ISRC USZEG1200715
INDEX 01 00:00:00
FILE "16 I Came to Kill (ft. RBX).wav" WAVE
TRACK 16 AUDIO
TITLE "I Came to Kill (ft. RBX)"
PERFORMER "Xzibit"
ISRC USZEG1200716
INDEX 01 00:00:00
FILE "17 Killer's Remorse (ft. B-Real, Bishop Lamont & Demrick).wav" WAVE
TRACK 17 AUDIO
TITLE "Killer's Remorse (ft. B-Real, Bishop Lamont & Demrick)"
PERFORMER "Xzibit"
ISRC USZEG1200717
INDEX 01 00:00:00
FILE "18 1983 Remix (ft. Trena Joiner).wav" WAVE
TRACK 18 AUDIO
TITLE "1983 Remix (ft. Trena Joiner)"
PERFORMER "Xzibit"
ISRC USZEG1200718
INDEX 01 00:00:00
Download / Скачать

Хотите скачать бесплатно? Зарегистрируйтесь на сайте (ссылка на регистрацию). Pirat.ca - самый быстрый торрент трекер в рунете!

Как скачивать  ·   Что такое торрент  ·   Рейтинг и ограничения



Последний раз редактировалось: -B1ack- (2013-11-11 17:57), всего редактировалось 2 раз(а)

Apoc245

Лоцман

Пост 17-Июн-2013 17:54 (спустя 4 месяца 26 дней)

[Q] 

[Профиль]  [ЛС] 
Показать сообщения:    
Ответить на тему

Текущее время: Сегодня 17:41

Часовой пояс: GMT + 4



Вы не можете начинать темы
Вы не можете отвечать на сообщения
Вы не можете редактировать свои сообщения
Вы не можете удалять свои сообщения
Вы не можете голосовать в опросах
Вы не можете прикреплять файлы к сообщениям
Вы не можете скачивать файлы

Майнать ▼