(Acid Jazz, Downtempo) Koop - Koop Islands [US Edition/ Atlantic] - 2007, APE (image+.cue), lossless

Ответить на тему
 
Автор
Сообщение

Пост 31-Окт-2011 02:19

[Q] 

Koralina

Koop - Koop Islands [US Edition/ Atlantic] - 2007 Страна: USA
Жанр: Acid Jazz, Downtempo
Дата выхода: 2007
Формат аудио: APE (image+.cue)
Битрэйт: lossless
Продолжительность: 00:39:39


01. Koop Island Blues
02. Come To Me
03. Forces... Darling
04. I See a Different You
05. Let's Elope
06. The Moonbounce
07. Beyond the Son
08. Strange Love
09. Drum Rhythm a (Music For Ballet Exercises)
10. Whenever There Is You
11. Come To Me (Featuring The BBC Big Band)
Код:
Exact Audio Copy V0.99 prebeta 5 from 4. May 2009
Отчёт EAC об извлечении, выполненном 11. октября 2009, 2:37
Koop / Koop Islands
Дисковод: Optiarc DVD RW AD-7201S   Adapter: 1  ID: 1
Режим чтения                 : Достоверность
Использование точного потока : Да
Отключение кэша аудио        : Да
Использование указателей C2  : Нет
Коррекция смещения при чтении                     : 48
Способность читать области Lead-in и Lead-out     : Нет
Заполнение пропущенных сэмплов тишиной            : Да
Удаление блоков с тишиной в начале и конце        : Нет
При вычислениях CRC использовались нулевые сэмплы : Да
Интерфейс                                         : Встроенный Win32-интерфейс для Win NT/2000
Выходной формат : Внутренние WAV-операции
Формат сэмплов  : 44.100 Гц; 16 бит; стерео
TOC извлечённого CD
     Трек |   Старт  | Длительность | Начальный сектор | Конечный сектор
    ---------------------------------------------------------------------
       1  |  0:00.00 |    4:34.26   |           0      |      20575
       2  |  4:34.26 |    2:51.27   |       20576      |      33427
       3  |  7:25.53 |    5:03.07   |       33428      |      56159
       4  | 12:28.60 |    3:16.65   |       56160      |      70924
       5  | 15:45.50 |    3:14.51   |       70925      |      85525
       6  | 19:00.26 |    2:46.10   |       85526      |      97985
       7  | 21:46.36 |    4:52.17   |       97986      |     119902
       8  | 26:38.53 |    3:24.61   |      119903      |     135263
       9  | 30:03.39 |    2:15.28   |      135264      |     145416
      10  | 32:18.67 |    4:01.19   |      145417      |     163510
      11  | 36:20.11 |    3:19.07   |      163511      |     178442
Характеристики диапазона извлечения и сообщения об ошибках
Выбранный диапазон
     Имя файла D:\Documents and Settings\Rodexx\Рабочий стол\Koop - Koop Islands\Koop - Koop Islands.wav
     Пиковый уровень 98.8 %
     Качество диапазона 99.9 %
     CRC теста BD93A06F
     CRC копии BD93A06F
     Копирование... OK
Ошибок не произошло
Конец отчёта
Код:
REM GENRE Dance
REM DATE 2007
REM DISCID 84094B0B
REM COMMENT "ExactAudioCopy v0.99pb5"
PERFORMER "Koop"
TITLE "Koop Islands"
FILE "Koop - Koop Islands.ape" WAVE
  TRACK 01 AUDIO
    TITLE "Koop Island Blues"
    PERFORMER "Koop"
    INDEX 01 00:00:00
  TRACK 02 AUDIO
    TITLE "Come To Me"
    PERFORMER "Koop"
    INDEX 01 04:34:26
  TRACK 03 AUDIO
    TITLE "Forces... Darling"
    PERFORMER "Koop"
    INDEX 01 07:25:53
  TRACK 04 AUDIO
    TITLE "I See A Different You"
    PERFORMER "Koop"
    INDEX 01 12:28:60
  TRACK 05 AUDIO
    TITLE "Let's Elope"
    PERFORMER "Koop"
    INDEX 01 15:45:50
  TRACK 06 AUDIO
    TITLE "The Moonbounce"
    PERFORMER "Koop"
    INDEX 01 19:00:26
  TRACK 07 AUDIO
    TITLE "Beyond The Son"
    PERFORMER "Koop"
    INDEX 01 21:46:36
  TRACK 08 AUDIO
    TITLE "Strange Love"
    PERFORMER "Koop"
    INDEX 01 26:38:53
  TRACK 09 AUDIO
    TITLE "Drum Rhythym A (Music For Ballet Exercises)"
    PERFORMER "Koop"
    INDEX 01 30:03:39
  TRACK 10 AUDIO
    TITLE "Whenever There Is You"
    PERFORMER "Koop"
    INDEX 01 32:18:67
  TRACK 11 AUDIO
    TITLE "Come To Me (Feat. The BBC Big Band)"
    PERFORMER "Koop"
    INDEX 01 36:20:11

Started at: воскресенье, 11. 10. 2009. - 3:01.26
1 file found
1 -===- D:\Documents and Settings\Rodexx\Рабочий стол\Koop - Koop Islands\Koop - Koop Islands.ape
Extracted successfully
Conclusion: this track is CDDA with probability 100%
Tempfile successfully deleted.
Finished at: воскресенье, 11. 10. 2009. - 3:06.21 (operation time: 0:04.54)

Download / Скачать

Хотите скачать бесплатно? Зарегистрируйтесь на сайте (ссылка на регистрацию). Pirat.ca - самый быстрый торрент трекер в рунете!

Как скачивать  ·   Что такое торрент  ·   Рейтинг и ограничения

Боцман

1876

Пост 27-Ноя-2011 07:16 (спустя 27 дней)

[Q] 

В кильватере...

_________________
не верь не бойся не проси не плачь...
[Профиль]  [ЛС] 

Боцман

1876

Пост 27-Ноя-2011 07:19 (спустя 3 минуты)

[Q] 

В кильватере...

_________________
не верь не бойся не проси не плачь...
[Профиль]  [ЛС] 

_Salam_

10106

Пост 12-Июн-2013 16:37 (спустя 1 год 6 месяцев)

[Q] 


Спасибочки! Моя просто ахринеть... aa
Если не ошибаюсь, некоторые композиции были использованы для озвучки DVD журнала "Игромания" когда то..

_________________
Я не лечу свою шизофрению. Она у меня не болит!!!
[Профиль]  [ЛС] 

Koralina ®

83168

Пост 19-Июн-2013 03:18 (спустя 6 дней)

[Q] 

381814Спасибочки! Моя просто ахринеть...
Всегда пожалуйста. bs

_________________
[Профиль]  [ЛС] 
Показать сообщения:    
Ответить на тему

Текущее время: Сегодня 17:26

Часовой пояс: GMT + 4



Вы не можете начинать темы
Вы не можете отвечать на сообщения
Вы не можете редактировать свои сообщения
Вы не можете удалять свои сообщения
Вы не можете голосовать в опросах
Вы не можете прикреплять файлы к сообщениям
Вы не можете скачивать файлы

Майнать ▼