(Classical) Trondheim Solistene - Divertimenti - Britten, Bacewicz, Bartok - 2008 [BR][OF]

Ответить на тему
 
Автор
Сообщение

Пост 06-Апр-2012 19:30

[Q] 

Koralina

Trondheim Solistene - Divertimenti - Britten, Bacewicz, Bartok Жанр: Classical
Год выпуска диска: 2008
Производитель диска: Норвегия/2L
Аудио кодек: DTS
Тип рипа: tracks
Исполнители: TrondheimSolistene (Øyvind Gimse, conductor)
Формат выпуска: Blu-Ray
Битрейт аудио: lossless
Продолжительность: 69:03
Benjamin Britten (1913-1976) - Simple Symphony, op.4
1) Boisterous Bourree
2) Playful Pizzicato
3) Sentimental Saraband
4) Frolicsome Finale

Grazyna Bacewicz (1909-1969) - Concerto for String Orchestra
5) Allegro
6) Andante
7) Vivo

Terje Bjorklund (1945)
8) Carmina
Bela Bartok (1881-1945) - Divertimento for Strings
9) Allegro non troppo
10) Molto adagio
11) Allegro assai
Доп. информация:
Аудио:
24bit/192 kHZ
Linear PCM (Stereo) - 9216 Kbps
Linear PCM 5.1 - 27648 Kbps
Dts-HD 5.1 surround - 12426Kbps
Dolby TrueHD 5.1 surround - 10176Kbps
Dolby Digital 5.1 surround - 640 Kbps
Trondheim Solistene (The Trondheim Soloists) - один из самых известных молодых ансамблей Норвегии. Диск выпущен норвежским лейблом 2L.
В одном из интервью директор этого лейбла рассказывал, что перед выпуском этого диска, они пригласили для тестирования известного в Норвегии музыкального критика. Когда он пришел на студию и узнал для чего его пригласили, то захотел немедленно уйти, из-за того что он был сторонником винила. И стоило больших трудов уговорить его остаться. После прослушивания, когда его спросили о впечатлении, он ответил, что идет домой, не будет спать всю ночь и будет писать статью, о том что он 30 лет вводил своих читателей в заблуждение, о том что винил - это наивысшее качество музыкального звучания.
На мой взгляд, диск полезен любому любителю Hi-Fi звука для того, чтобы понять разницу в кодеках и качестве звучания, сравнивая их на одних и тех же произведениях. И установить для себя планку - от такого-то кодека меня удовлетворяет качество, а до такого-то - нет.
Скопирован с оригинального Blu-ray диска с использованием AnyDVD.
На компьютере без проблем слушал его через плеер ArcSoft TotalMedia, если не будет звука - поставить галочку в (Setup/Audio - Enable down sample rate 192kHz), также можно слушать на плеере Power DVD 7.3 версия 3319а , но для проигрывания нужен компьютер с достаточно высокими системными характеристиками. В плеере выбрать "Open movie folder from hard disk" (это в ArcSoft TotalMedia) и указать папку BDMV.
Дивертисмент как музыкальный жанр, по времени, относится к девятнадцатому столетию. Дивертисменты сочинялись по различным социальным событиям и предполагались быть легкими, несложными и веселыми. Такие пьесы часто инструментовались для небольшого ансамбля струнных. Спустя годы, эта легкая, элегантная форма появилась во многих различных музыкальных стилях и, в большой степени, установила стандарт для виртуозной камерной концертной музыки, известной нам сегодня. Множество самых видных композиторов нашего времени используют этот самый очаровательный ансамблевый стиль, и обогащают его дальнейшую изысканность как камерно-симфонический экспонат.
Эдуард Бенджамин Бриттен (род. 1913, Лоустофт, Суффолк; ум. 1976, Альдебург, Норфолк), был одним из самых влиятельных композиторов встречавшихся в истории английской музыки. Пленительный карьера провела его через широкое разнообразие жанров; среди его многих превосходных работ можно найти оперы, оркестровые работы, камерную музыку и несколько песен. Особенно он любил детей, сочинив детскую оперу (Давайте ставить Оперу!) в 1949; чудесно игривая его природа дала начало Простой Симфонии op. 4, основанной на восьми мелодиях детства – по напеву для каждого из четырех частей работы. Музыка остроумна и возбуждающа, и блестяще оркестрована. Она демонстрирует весь спектр человеческих качеств Бриттена, как композитора, бесценное остроумие соседствующее с юной серьезностью, неподдельностью и подвижностью.
Гражина Бацевич (Grażyna Bacewicz) (род. 1909, Лодзь; ум. 1969, Варшава), была польским композитором и скрипачом, и одной из очень немногих женских композиторов своего поколения в Польши, получивших признания вне ее родной страны. Первые уроки скрипки Бацевич получила у своего отца и продолжила учиться на фортепьяно и скрипке в Варшавской консерватории в 1928. В 1932 она совершенствуется в Школе музыки (École Normale de Musique) в Париже у Нади Буланж (Nadia Boulanger) и берет частные уроки скрипки у Анри Туре (Henri Touret). Позже, она возвращается в Париж, чтобы обучаться у венгерского скрипача Карла Флеша (Carl Flesch).
По завершения обучения, у Бацевич начинается обширная карьера композитора и исполнителя, она получает пост концертмейстера в Оркестре польского радио. Всю Второй мировой войне, оставаясь в Варшаве, дает множество подпольных концертов и секретных премьер собственной музыки. После войны, Бацевич была назначена профессором государственной консерватории в Лодзи. Она расширяет свою композиторскую деятельность за счет карьеры исполнителя, а после серьезной автомобильной катастрофы в 1954, полностью уделяет внимание композиции. Список опусов Бацевич содержит очень много работ для струнных, включая семь концертов для скрипки, пять скрипичных сонат, семь скрипичных квартетов, два фортепьянных квартета и четыре симфонии. Концерт для Струнного Оркестра (1948) демонстрирует ее формальное мастерство и характерный стиль. Хотя в ее музыкальном языке наблюдаются следы Лютославского и Шимановского, все-таки этот язык очень оригинален и отчетливо личный. Темные, многогранные текстуры второй части, например, беспрецедентны.
Терье Бьёрклунд (Terje Bjørklund) (род. 1945, Нарвик, Норвегия) работает мягкой, сияющей музыкальной палитрой. Его Carmina ("Песни") состоит из длинных линий и нежного разворачивания музыкальной структуры, прерываемой только иногда более короткими, более активными переходами. Работа создана вокруг непрерываемой нисходящей гаммы неотразимой красоты, подкрепленной, мягко текущими, минималистскими звуковыми модулями. Оркестровка Бьёрклунда изящна, демонстрирует значение его длительной, не ограниченной жанром музыкальной причастности. Длительное время Бьёрклунд был активным джазовым пианистом, и в 1983 его наградили Norwegian Jazz Federation's Buddy статуэткой за вклад в норвежский джаз. С 1980 Бьёрклунд сконцентрировался на композиторстве, создавая главным образом работы в так называемых серьезных жанрах классической музыки. Во многих из работ Бьёрклунда гармония - центральный элемент; звучание аккордов и нюансы структур часто напоминает современный джаз. Ему поручали писать для хора, оркестра и различных соло, а также, камерные аранжировки. Он написал солидное собрание работ для струнных, вдохновленный количеством превосходных исполнителей на струнных в Тронхейме.
Carmina первоначально была написана для Струнного квартета Чилингириан (Chilingirian), а для этой записи была аранжирована Бьёрклундом для струнного ансамбля ТронхеймСолистене (TrondheimSolistene). Вдохновением для работы послужили пиндарические оды, которые писались для победителей Олимпиады в древней Греции.
Бэла Барток (Béla Bartók) (род. 1881, Надьсентмиклош (ныне Сынниколаус-Маре, Румыния); ум. 1945 Нью-Йорк), в детстве перенес тяжелую болезнь. Возможно, она повлияла на его раннее музыкальное понимание и творческую зрелость. Ему было тридцать восемь в конце Первой мировой войны, когда Версальское соглашение разделило его родную Венгрию, разделив три пятых страны между другими нациями - акт, пробудивший страстную приверженность к венгерскому фольклору и культуре. Вместе с своим близким другом и коллегой Золтаном Кодае (Zoltán Kodály) он предпринял долгие исследовательские поездки по всем венгерско-говорящим областям (включая Румынию), собирая материал по народной музыке.
В Дивертисменте для струнных (1939) мы сталкиваемся со зрелым Бартоком - он одновременно работает над шестым струнным квартетом и только что закончил концерт для скрипки и пьесу Контрасты для скрипки, кларнета и фортепьяно для Бенни Гудмана. Политический климат того время в Европе делает очень трудным продолжение антинацистом Бартоком своей деятельности в Венгрии, и на следующий году он и его жена эмигрировали в США, остановившись в Нью-Йорк, где он умер в 1945. Стиль Бартока очень индивидуален, последнее становится все более и более очевидным в работах заключительного периода его жизни; его пожизненный интерес к венгерской и румынской народной музыке весьма прозрачно приводит к ясно сформулированным действиям музыкального гения. Человек, описанный американским критиком музыки "изящным и дотошным в своих движениях – более похожим на профессора ботаники, чем на композитора", создал музыка почти безжалостно энергичного качества. В Дивертисменте он убедительно достигает цели, объединив фольклорные элементы с радикальными, модернистскими элементами, такими как нотные кластеры и мультитональные пассажи. Мастерство одно никогда не определяет результат, однако, за каждым импульсом стоит основная музыкальная идея. Один из самых очаровательных аспектов этой работы - взаимоотношение между общей экспрессией частей. Барток любил сочетать крайности, и в этом случае мы сталкиваемся с крайностями в выборе темпов и длины музыкального предмета: острые ритмы внешних частей противопоставлены медленной средней части с ее почти бесконечным линейным взаимодействием, в котором мы, кажется, сталкиваемся со страстной эмоциональной жизнью композитора в ее полноте.
ТронхеймСолистене (TrondheimSolistene -Тронхеймские Солисты) - один из самых впечатляющих молодых ансамблей Норвегии, выступающих на международных сценах. Благодаря оркестровой верности, приверженности и энтузиазму, он быстро зарекомендовал себя как новаторский камерный оркестр, приглашающий к сотрудничеству исполнителей самого высокого уровня и в широком диапазоне жанров.
Сформированный Бъярне Фискумом (Bjarne Fiskum) в 1988, ТронхеймСолистене был долгие годы основным форумом для профессионального концертного обучения в Тронхейме. Оркестр заявил о своем переходе на международную стадию в 1990, восторженно встреченным дебютом в Лондоне, а дальнейшие международные концерты только подтвердили репутации оркестра. В 1999 оркестр был приглашен аккомпанировать скрипачке Энни-Софи Муттер для ее новой записи Четырех времен года Вивальди на Дойче Граммофон, начав таким образом важное артистическое сотрудничество обеих групп. В 2001 оркестр дебютировал в Карнеги Холл с госпожой Муттер и последовавшими дальнейшими концертами в Вашингтоне, Бостоне, Чикаго и Анн-Арборе (Ann Arbor) со скрипачом Джошуа Беллом (Joshua Bell). В 2007 ТронхеймСолистене совершает поездку по Германии, Испании и Ирландии с госпожой Маттер, а в 2008 оркестр сопровождает ее еще раз в обширном турне по Дальнему Востоку с концертами в Китае, Южной Корее, Тайване и Японии, в дополнение к выступлению на Фестивале Люцерне.
Оркестр регулярно выступает со многими ведущими исполнителями Скандинавии, а недавнее сотрудничество включило концерты с Лайф Ове Андснесем (Leif Ove Andsnes), Ларс Андерс Томтером (Lars Anders Tomter), Арве Теллефсеном (Arve Tellefsen), Солвайг Крингелборном (Solveig Kringelborn) и Оле Эдвард Антонсеном (Ole Edvard Antonsen). Оркестр - ведущий приверженец скандинавской музыки, и регулярно включает скандинавскую музыку в свою программу, записи и заказы. Поразительная многосторонность оркестра позволяет ему исполнять широкий круг музыкальных жанров и стилей от барокко до танго, джаза, поп и рока.
ТронхеймСолистене - продуктивный и, получающий награды за записи, коллектив, записав в 2008 более 25 работ. Записанные проекты включили и Концерты для скрипки Моцарта на 2L с солисткой Мэрианне Торсен (Marianne Thorsen), получивший Приз норвежский индустрии звукозаписи как лучшая классическая запись 2006 г. Американский журнал Стереофил объявил альбом "записью – послушать и умереть". Новый CD с госпожой Муттер, представляющий Концерты Баха выпускается Дойче Граммофон весной 2008.
Цитата:
...Явно не проходной диск. Сначала немного о музыкальности. Эту подборку совсем уж веселой и легкой по музыкальности я бы не назвал. Легкая или даже воздушная запись в смысле исполнения и звука – это точно. Чем руководствовался составитель, подбирая авторов на одну букву, об этом история умалчивает. Они все сильно различаются по стилю и известности. Бриттен и Барток на слуху. Игривое пиццикато вообще является поп-классикой. В то время как Бьёрклунд и отчасти Бацевич известны в основном специалистам. Содержание хорошо описал Geohominid. Я могу с ним только согласиться насчет точности звучания струнных у Бриттена, плотной, вяжущей мелодии Бацевич, с которой я. как с Бьёрклундом (очень элегичное произведение) впервые познакомился. В начале дивертисмента Бартока, звучат мотивы Рапсодии Гершвина, хотя и они могут иметь отношение к фольклору Трансильванской равнины. Если первые три автора тяготеют к неоклассике, то у Бартока уже появляются Шёнберговские диссонансы.
Ансамбль расставлен кольцом в два ряда вокруг микрофонов. Последние сгруппированы вместе, но не в точке, как у Чески и без разделяющих ушей, как у Изомайка (это отдельная тема). Скрипичная группа по большей части слева, альты – спереди, виолончельная – справа, поэтому основная часть мелодий развиваются слева.
Локализация во многом определяется характером звукоизвлечения. В Игривом пиццекато мы можем конкретно ткнуть пальцев в каждого исполнителя, у уже в задумчиво-печальной Сентиментальной сарабанде тягучие, протяжные звуки размываю место положение (в смысле глубины) не теряя направления источника звука. Ансамбль активно использует пространственное разделение инструментов, вплетая и соединяя движение мелодии с пространством. Это и переливы и переклички. Хотя восприятие круговой музыкальной картины дело вкуса, привычки. Не случайно на том же sa-cd.net кто-то утверждает, что в таком аспекте классика не естественна, и лучше слушать стерео. Например, сначала мне тоже не понравились густые стонущие звуки сзади в Кармине, но позже, именно заднее звучание нашел соответствующим теме...
http://m-music.ru/index.php?showtopic=3248
Этот диск вошёл в историю современной звукозаписи XXI века как самый первый из когда-либо выпущенных Pure Audio Blu-ray. Именно он принёс славу и почёт норвежцам 2L.
"...В одном из интервью директор этого лейбла рассказывал, что перед выпуском этого диска, они пригласили для тестирования известного в Норвегии музыкального критика. Когда он пришел на студию и узнал для чего его пригласили, то захотел немедленно уйти, из-за того что он был сторонником винила. И стоило больших трудов уговорить его остаться. После прослушивания, когда его спросили о впечатлении, он ответил, что идет домой, не будет спать всю ночь и будет писать статью, о том что он 30 лет вводил своих читателей в заблуждение, о том что винил - это наивысшее качество музыкального звучания..."
На диске пять вариантов звука, в многоканальном и стерео вариантах сведения. На мой взгляд, это полезно любому любителю Hi-End звука для того, чтобы понять разницу в кодеках и качестве звучания, сравнивая их на одном и том же, одинаковом, музыкальном материале и наконец-то установить для себя планку - от такого-то кодека меня удовлетворяет качество звука, а до такого-то - нет.

Формат : DTS-HD MA 5.1
Формат/Информация : Digital Theater Systems Вид битрейта : Переменный
Битрейт : ~ 12 426 Кбит/сек
Канал(ы) : 6 канала(ов)
Расположение каналов : Front: L C R, Surround: L R, LFE
Частота : 192 КГц
Разрешение : 24 бит
(DTS Core: 5.1 / 48 kHz / 1509 kbps / 24-bit)
Формат : PCM 5.1
Формат/Информация : LPCM Вид битрейта : Постоянный
Битрейт : 27 648 Кбит/сек
Канал(ы) : 6 канала(ов)
Расположение каналов : Front: L C R, Surround: L R, LFE
Частота : 192 КГц
Разрешение : 24 бит
Формат : PCM Формат/Информация : LPCM
Вид битрейта : Постоянный
Битрейт : 9 216 Кбит/сек
Канал(ы) : 2 канала(ов)
Расположение каналов : Front: L R
Частота : 192 КГц
Разрешение : 24 бит
Формат : Dolby TrueHD 5.1 Формат/Информация : Dolby
Вид битрейта : Постоянный
Битрейт : 10 176 Кбит/сек
Канал(ы) : 6 канала(ов)
Расположение каналов : Front: L C R, Surround: L R, LFE
Частота : 192 КГц
Разрешение : 24 бит
Формат : DD Формат/Информация : Dolby Digital
Вид битрейта : Постоянный
Битрейт : 640 Кбит/сек
Канал(ы) : 6 канала(ов)
Расположение каналов : Front: L C R, Surround: L R, LFE
Частота : 48 КГц
Звукозаписывающая компания Lindberg Lyd, применяет для записи Digital eXtreme Definition - профессиональный аудио-формат, который несет аналоговое качество в 24 бита на частоте 352.8 kHz. DXD сохраняет 8.4672 Mbit/s на канал
(в 3 раза больше чем в формате DSD, используемом в SACD). Это вкупе со специальм раположением оркестра и использованием
микрофонов DPA, усилителей Millennia Media и SPHYNX2 создаёт эффект полного присутствия.
Disc Title:
Disc Size: 45 494 183 524 bytes
Protection: AACS
BD-Java: No
BDInfo: 0.5.3
Notes:
BDINFO HOME:
Cinema Squid
http://www.cinemasquid.com/blu-ray/tools/bdinfo
INCLUDES FORUMS REPORT FOR:
AVS Forum Blu-ray Audio and Video Specifications Thread
http://www.avsforum.com/avs-vb/showthread.php?t=1155731
********************
PLAYLIST: 00001.MPLS
********************
<--- BEGIN FORUMS PASTE --->
Код:
Total   Video
Title                                                           Codec   Length  Movie Size      Disc Size       Bitrate Bitrate Main
Audio Track                          Secondary Audio Track
-----                                                           ------  ------- --------------  --------------  ------- -------
------------------                        ---------------------
00001.MPLS                                                      MPEG-2  1:08:58 20 422 065 984  45 494 183 524  39,48   9,00
DTS-HD Master 5.1 12990Kbps (192kHz/24-bit)Dolby TrueHD 5.1 13122Kbps (192kHz/16-bit)
Код:
DISC INFO:
Disc Title:
Disc Size:      45 494 183 524 bytes
Protection:     AACS
BD-Java:        No
BDInfo:         0.5.3
PLAYLIST REPORT:
Name:                   00001.MPLS
Length:                 1:08:58 (h:m:s)
Size:                   20 422 065 984 bytes
Total Bitrate:          39,48 Mbps
(*) Indicates included stream hidden by this playlist.
VIDEO:
Codec                   Bitrate             Description
-----                   -------             -----------
MPEG-2 Video            9000 kbps           1080p / 24 fps / 16:9
AUDIO:
Codec                           Language        Bitrate         Description
-----                           --------        -------         -----------
DTS-HD Master Audio             English         12990 kbps      5.1 / 192 kHz / 12990 kbps / 24-bit (DTS Core: 5.1 / 48 kHz / 1509
kbps / 24-bit)
* Dolby TrueHD Audio            English         13122 kbps      5.1 / 192 kHz / 13122 kbps / 16-bit (AC3 Embedded: 5.1 / 48 kHz /
640 kbps)
* Dolby Digital Audio           English         640 kbps        5.1 / 48 kHz / 640 kbps
FILES:
Name            Time In         Length          Size            Total Bitrate
----            -------         ------          ----            -------------
00014.M2TS      0:00:00.000     1:08:58.041     20 422 065 984  39 482
CHAPTERS:
Number          Time In         Length          Avg Video Rate  Max 1-Sec Rate  Max 1-Sec Time  Max 5-Sec Rate  Max 5-Sec Time  Max
10Sec Rate  Max 10Sec Time  Avg Frame Size  Max Frame Size  Max Frame Time
------          -------         ------          --------------  --------------  --------------  --------------  --------------
--------------  --------------  --------------  --------------  --------------
1               0:00:00.000     0:03:02.500     9 000 kbps      9 307 kbps      00:00:00.458    9 000 kbps      00:00:00.124
9 032 kbps      00:00:00.458    46 862 bytes    86 867 bytes    00:00:00.500
2               0:03:02.500     0:03:08.791     9 000 kbps      9 319 kbps      00:06:10.250    9 066 kbps      00:06:06.291
9 033 kbps      00:06:01.250    46 875 bytes    88 409 bytes    00:06:11.291
3               0:06:11.291     0:06:22.166     8 999 kbps      9 319 kbps      00:06:11.666    9 064 kbps      00:12:28.416
9 033 kbps      00:06:11.666    46 871 bytes    88 409 bytes    00:06:11.708
4               0:12:33.458     0:02:55.250     9 000 kbps      9 351 kbps      00:15:27.625    9 073 kbps      00:15:23.666
9 036 kbps      00:15:18.625    46 877 bytes    92 588 bytes    00:15:28.666
5               0:15:28.708     0:05:13.666     9 000 kbps      9 353 kbps      00:20:41.291    9 074 kbps      00:20:37.333
9 037 kbps      00:20:32.291    46 875 bytes    92 870 bytes    00:20:42.333
6               0:20:42.375     0:05:02.958     9 001 kbps      9 353 kbps      00:20:42.708    9 120 kbps      00:25:40.291
9 037 kbps      00:20:42.708    46 881 bytes    92 870 bytes    00:20:42.750
7               0:25:45.333     0:05:06.791     8 998 kbps      9 343 kbps      00:25:45.666    9 052 kbps      00:30:47.083
9 036 kbps      00:25:45.666    46 867 bytes    91 477 bytes    00:25:45.708
8               0:30:52.125     0:13:09.458     9 000 kbps      9 341 kbps      00:44:00.541    9 121 kbps      00:43:56.541
9 035 kbps      00:43:51.541    46 877 bytes    89 851 bytes    00:44:01.541
9               0:44:01.583     0:08:54.000     9 000 kbps      9 330 kbps      00:44:01.916    9 086 kbps      00:52:50.541
9 034 kbps      00:44:01.916    46 873 bytes    89 851 bytes    00:44:01.958
10              0:52:55.583     0:08:53.541     9 000 kbps      9 321 kbps      00:52:55.916    9 066 kbps      01:01:44.083
9 033 kbps      00:52:55.916    46 874 bytes    88 729 bytes    00:52:55.958
11              1:01:49.125     0:07:08.916     9 000 kbps      9 318 kbps      01:08:56.958    9 000 kbps      01:08:53.000
9 033 kbps      01:08:47.958    46 878 bytes    88 287 bytes    01:08:58.000
STREAM DIAGNOSTICS:
File            PID             Type            Codec           Language                Seconds                 Bitrate
   Bytes           Packets
----            ---             ----            -----           --------                --------------          --------------
   -------------   -----
00014.M2TS      4113 (0x1011)   0x02            MPEG-2                                  4138,000                9 000
   4 655 240 252   25 334 095
00014.M2TS      4352 (0x1100)   0x86            DTS-HD MA       eng (English)           4138,000                12 990
   6 719 282 596   37 163 088
00014.M2TS      4353 (0x1101)   0x83            TrueHD          eng (English)           4138,000                13 762
   7 118 217 456   41 789 373
00014.M2TS      4354 (0x1102)   0x81            AC3             eng (English)           4138,000                640
   331 043 840     1 939 710
<---- END FORUMS PASTE ---->
QUICK SUMMARY:
Disc Title:
Disc Size: 45 494 183 524 bytes
Protection: AACS
BD-Java: No
Playlist: 00001.MPLS
Size: 20 422 065 984 bytes
Length: 1:08:58
Total Bitrate: 39,48 Mbps
Video: MPEG-2 Video / 9000 kbps / 1080p / 24 fps / 16:9
Audio: English / DTS-HD Master Audio / 5.1 / 192 kHz / 12990 kbps / 24-bit (DTS Core: 5.1 / 48 kHz / 1509 kbps / 24-bit)
* Audio: English / Dolby TrueHD Audio / 5.1 / 192 kHz / 13122 kbps / 16-bit (AC3 Embedded: 5.1 / 48 kHz / 640 kbps)
* Audio: English / Dolby Digital Audio / 5.1 / 48 kHz / 640 kbps
********************
PLAYLIST: 00004.MPLS
********************
<--- BEGIN FORUMS PASTE --->
Код:
Total   Video
Title                                                           Codec   Length  Movie Size      Disc Size       Bitrate Bitrate Main
Audio Track                          Secondary Audio Track
-----                                                           ------  ------- --------------  --------------  ------- -------
------------------                        ---------------------
00004.MPLS                                                      MPEG-2  1:08:58 20 422 065 984  45 494 183 524  39,48   9,00
DTS-HD Master 5.1 12990Kbps (192kHz/24-bit)Dolby TrueHD 5.1 13122Kbps (192kHz/16-bit)
Код:
DISC INFO:
Disc Title:
Disc Size:      45 494 183 524 bytes
Protection:     AACS
BD-Java:        No
BDInfo:         0.5.3
PLAYLIST REPORT:
Name:                   00004.MPLS
Length:                 1:08:58 (h:m:s)
Size:                   20 422 065 984 bytes
Total Bitrate:          39,48 Mbps
(*) Indicates included stream hidden by this playlist.
VIDEO:
Codec                   Bitrate             Description
-----                   -------             -----------
MPEG-2 Video            9000 kbps           1080p / 24 fps / 16:9
AUDIO:
Codec                           Language        Bitrate         Description
-----                           --------        -------         -----------
* DTS-HD Master Audio           English         12990 kbps      5.1 / 192 kHz / 12990 kbps / 24-bit (DTS Core: 5.1 / 48 kHz / 1509
kbps / 24-bit)
* Dolby TrueHD Audio            English         13122 kbps      5.1 / 192 kHz / 13122 kbps / 16-bit (AC3 Embedded: 5.1 / 48 kHz /
640 kbps)
Dolby Digital Audio             English         640 kbps        5.1 / 48 kHz / 640 kbps
FILES:
Name            Time In         Length          Size            Total Bitrate
----            -------         ------          ----            -------------
00014.M2TS      0:00:00.000     1:08:58.041     20 422 065 984  39 482
CHAPTERS:
Number          Time In         Length          Avg Video Rate  Max 1-Sec Rate  Max 1-Sec Time  Max 5-Sec Rate  Max 5-Sec Time  Max
10Sec Rate  Max 10Sec Time  Avg Frame Size  Max Frame Size  Max Frame Time
------          -------         ------          --------------  --------------  --------------  --------------  --------------
--------------  --------------  --------------  --------------  --------------
1               0:00:00.000     0:03:02.500     9 000 kbps      9 307 kbps      00:00:00.458    9 000 kbps      00:00:00.124
9 032 kbps      00:00:00.458    46 862 bytes    86 867 bytes    00:00:00.500
2               0:03:02.500     0:03:08.791     9 000 kbps      9 319 kbps      00:06:10.250    9 066 kbps      00:06:06.291
9 033 kbps      00:06:01.250    46 875 bytes    88 409 bytes    00:06:11.291
3               0:06:11.291     0:06:22.166     8 999 kbps      9 319 kbps      00:06:11.666    9 064 kbps      00:12:28.416
9 033 kbps      00:06:11.666    46 871 bytes    88 409 bytes    00:06:11.708
4               0:12:33.458     0:02:55.250     9 000 kbps      9 351 kbps      00:15:27.625    9 073 kbps      00:15:23.666
9 036 kbps      00:15:18.625    46 877 bytes    92 588 bytes    00:15:28.666
5               0:15:28.708     0:05:13.666     9 000 kbps      9 353 kbps      00:20:41.291    9 074 kbps      00:20:37.333
9 037 kbps      00:20:32.291    46 875 bytes    92 870 bytes    00:20:42.333
6               0:20:42.375     0:05:02.958     9 001 kbps      9 353 kbps      00:20:42.708    9 120 kbps      00:25:40.291
9 037 kbps      00:20:42.708    46 881 bytes    92 870 bytes    00:20:42.750
7               0:25:45.333     0:05:06.791     8 998 kbps      9 343 kbps      00:25:45.666    9 052 kbps      00:30:47.083
9 036 kbps      00:25:45.666    46 867 bytes    91 477 bytes    00:25:45.708
8               0:30:52.125     0:13:09.458     9 000 kbps      9 341 kbps      00:44:00.541    9 121 kbps      00:43:56.541
9 035 kbps      00:43:51.541    46 877 bytes    89 851 bytes    00:44:01.541
9               0:44:01.583     0:08:54.000     9 000 kbps      9 330 kbps      00:44:01.916    9 086 kbps      00:52:50.541
9 034 kbps      00:44:01.916    46 873 bytes    89 851 bytes    00:44:01.958
10              0:52:55.583     0:08:53.541     9 000 kbps      9 321 kbps      00:52:55.916    9 066 kbps      01:01:44.083
9 033 kbps      00:52:55.916    46 874 bytes    88 729 bytes    00:52:55.958
11              1:01:49.125     0:07:08.916     9 000 kbps      9 318 kbps      01:08:56.958    9 000 kbps      01:08:53.000
9 033 kbps      01:08:47.958    46 878 bytes    88 287 bytes    01:08:58.000
STREAM DIAGNOSTICS:
File            PID             Type            Codec           Language                Seconds                 Bitrate
   Bytes           Packets
----            ---             ----            -----           --------                --------------          --------------
   -------------   -----
00014.M2TS      4113 (0x1011)   0x02            MPEG-2                                  4138,000                9 000
   4 655 240 252   25 334 095
00014.M2TS      4352 (0x1100)   0x86            DTS-HD MA       eng (English)           4138,000                12 990
   6 719 282 596   37 163 088
00014.M2TS      4353 (0x1101)   0x83            TrueHD          eng (English)           4138,000                13 762
   7 118 217 456   41 789 373
00014.M2TS      4354 (0x1102)   0x81            AC3             eng (English)           4138,000                640
   331 043 840     1 939 710
<---- END FORUMS PASTE ---->
QUICK SUMMARY:
Disc Title:
Disc Size: 45 494 183 524 bytes
Protection: AACS
BD-Java: No
Playlist: 00004.MPLS
Size: 20 422 065 984 bytes
Length: 1:08:58
Total Bitrate: 39,48 Mbps
Video: MPEG-2 Video / 9000 kbps / 1080p / 24 fps / 16:9
* Audio: English / DTS-HD Master Audio / 5.1 / 192 kHz / 12990 kbps / 24-bit (DTS Core: 5.1 / 48 kHz / 1509 kbps / 24-bit)
* Audio: English / Dolby TrueHD Audio / 5.1 / 192 kHz / 13122 kbps / 16-bit (AC3 Embedded: 5.1 / 48 kHz / 640 kbps)
Audio: English / Dolby Digital Audio / 5.1 / 48 kHz / 640 kbps
********************
PLAYLIST: 00003.MPLS
********************
<--- BEGIN FORUMS PASTE --->
Код:
Total   Video
Title                                                           Codec   Length  Movie Size      Disc Size       Bitrate Bitrate Main
Audio Track                          Secondary Audio Track
-----                                                           ------  ------- --------------  --------------  ------- -------
------------------                        ---------------------
00003.MPLS                                                      MPEG-2  1:08:58 20 422 065 984  45 494 183 524  39,48   9,00
DTS-HD Master 5.1 12990Kbps (192kHz/24-bit)Dolby TrueHD 5.1 13122Kbps (192kHz/16-bit)
Код:
DISC INFO:
Disc Title:
Disc Size:      45 494 183 524 bytes
Protection:     AACS
BD-Java:        No
BDInfo:         0.5.3
PLAYLIST REPORT:
Name:                   00003.MPLS
Length:                 1:08:58 (h:m:s)
Size:                   20 422 065 984 bytes
Total Bitrate:          39,48 Mbps
(*) Indicates included stream hidden by this playlist.
VIDEO:
Codec                   Bitrate             Description
-----                   -------             -----------
MPEG-2 Video            9000 kbps           1080p / 24 fps / 16:9
AUDIO:
Codec                           Language        Bitrate         Description
-----                           --------        -------         -----------
* DTS-HD Master Audio           English         12990 kbps      5.1 / 192 kHz / 12990 kbps / 24-bit (DTS Core: 5.1 / 48 kHz / 1509
kbps / 24-bit)
Dolby TrueHD Audio              English         13122 kbps      5.1 / 192 kHz / 13122 kbps / 16-bit (AC3 Embedded: 5.1 / 48 kHz /
640 kbps)
* Dolby Digital Audio           English         640 kbps        5.1 / 48 kHz / 640 kbps
FILES:
Name            Time In         Length          Size            Total Bitrate
----            -------         ------          ----            -------------
00014.M2TS      0:00:00.000     1:08:58.000     20 422 065 984  39 482
CHAPTERS:
Number          Time In         Length          Avg Video Rate  Max 1-Sec Rate  Max 1-Sec Time  Max 5-Sec Rate  Max 5-Sec Time  Max
10Sec Rate  Max 10Sec Time  Avg Frame Size  Max Frame Size  Max Frame Time
------          -------         ------          --------------  --------------  --------------  --------------  --------------
--------------  --------------  --------------  --------------  --------------
1               0:00:00.000     0:03:02.500     9 000 kbps      9 307 kbps      00:00:00.458    9 000 kbps      00:00:00.124
9 032 kbps      00:00:00.458    46 862 bytes    86 867 bytes    00:00:00.500
2               0:03:02.500     0:03:08.791     9 000 kbps      9 319 kbps      00:06:10.250    9 066 kbps      00:06:06.291
9 033 kbps      00:06:01.250    46 875 bytes    88 409 bytes    00:06:11.291
3               0:06:11.291     0:06:22.166     8 999 kbps      9 319 kbps      00:06:11.666    9 064 kbps      00:12:28.416
9 033 kbps      00:06:11.666    46 871 bytes    88 409 bytes    00:06:11.708
4               0:12:33.458     0:02:55.250     9 000 kbps      9 351 kbps      00:15:27.625    9 073 kbps      00:15:23.666
9 036 kbps      00:15:18.625    46 877 bytes    92 588 bytes    00:15:28.666
5               0:15:28.708     0:05:13.666     9 000 kbps      9 353 kbps      00:20:41.291    9 074 kbps      00:20:37.333
9 037 kbps      00:20:32.291    46 875 bytes    92 870 bytes    00:20:42.333
6               0:20:42.375     0:05:02.958     9 001 kbps      9 353 kbps      00:20:42.708    9 120 kbps      00:25:40.291
9 037 kbps      00:20:42.708    46 881 bytes    92 870 bytes    00:20:42.750
7               0:25:45.333     0:05:06.791     8 998 kbps      9 343 kbps      00:25:45.666    9 052 kbps      00:30:47.083
9 036 kbps      00:25:45.666    46 867 bytes    91 477 bytes    00:25:45.708
8               0:30:52.125     0:13:09.458     9 000 kbps      9 341 kbps      00:44:00.541    9 121 kbps      00:43:56.541
9 035 kbps      00:43:51.541    46 877 bytes    89 851 bytes    00:44:01.541
9               0:44:01.583     0:08:54.000     9 000 kbps      9 330 kbps      00:44:01.916    9 086 kbps      00:52:50.541
9 034 kbps      00:44:01.916    46 873 bytes    89 851 bytes    00:44:01.958
10              0:52:55.583     0:08:53.541     9 000 kbps      9 321 kbps      00:52:55.916    9 066 kbps      01:01:44.083
9 033 kbps      00:52:55.916    46 874 bytes    88 729 bytes    00:52:55.958
11              1:01:49.125     0:07:08.875     9 001 kbps      9 318 kbps      01:08:56.958    9 000 kbps      01:08:53.000
9 033 kbps      01:08:47.958    46 878 bytes    88 287 bytes    01:08:58.000
STREAM DIAGNOSTICS:
File            PID             Type            Codec           Language                Seconds                 Bitrate
   Bytes           Packets
----            ---             ----            -----           --------                --------------          --------------
   -------------   -----
00014.M2TS      4113 (0x1011)   0x02            MPEG-2                                  4138,000                9 000
   4 655 240 252   25 334 095
00014.M2TS      4352 (0x1100)   0x86            DTS-HD MA       eng (English)           4138,000                12 990
   6 719 282 596   37 163 088
00014.M2TS      4353 (0x1101)   0x83            TrueHD          eng (English)           4138,000                13 762
   7 118 217 456   41 789 373
00014.M2TS      4354 (0x1102)   0x81            AC3             eng (English)           4138,000                640
   331 043 840     1 939 710
<---- END FORUMS PASTE ---->
QUICK SUMMARY:
Disc Title:
Disc Size: 45 494 183 524 bytes
Protection: AACS
BD-Java: No
Playlist: 00003.MPLS
Size: 20 422 065 984 bytes
Length: 1:08:58
Total Bitrate: 39,48 Mbps
Video: MPEG-2 Video / 9000 kbps / 1080p / 24 fps / 16:9
* Audio: English / DTS-HD Master Audio / 5.1 / 192 kHz / 12990 kbps / 24-bit (DTS Core: 5.1 / 48 kHz / 1509 kbps / 24-bit)
Audio: English / Dolby TrueHD Audio / 5.1 / 192 kHz / 13122 kbps / 16-bit (AC3 Embedded: 5.1 / 48 kHz / 640 kbps)
* Audio: English / Dolby Digital Audio / 5.1 / 48 kHz / 640 kbps
********************
PLAYLIST: 00002.MPLS
********************
<--- BEGIN FORUMS PASTE --->
Код:
Total   Video
Title                                                           Codec   Length  Movie Size      Disc Size       Bitrate Bitrate Main
Audio Track                          Secondary Audio Track
-----                                                           ------  ------- --------------  --------------  ------- -------
------------------                        ---------------------
00002.MPLS                                                      MPEG-2  1:08:58 25 071 187 968  45 494 183 524  48,47   9,00    LPCM
5.1 27648Kbps (192kHz/24-bit)        LPCM 2.0 9216Kbps (192kHz/24-bit)
Код:
DISC INFO:
Disc Title:
Disc Size:      45 494 183 524 bytes
Protection:     AACS
BD-Java:        No
BDInfo:         0.5.3
PLAYLIST REPORT:
Name:                   00002.MPLS
Length:                 1:08:58 (h:m:s)
Size:                   25 071 187 968 bytes
Total Bitrate:          48,47 Mbps
(*) Indicates included stream hidden by this playlist.
VIDEO:
Codec                   Bitrate             Description
-----                   -------             -----------
MPEG-2 Video            9000 kbps           1080p / 24 fps / 16:9
AUDIO:
Codec                           Language        Bitrate         Description
-----                           --------        -------         -----------
LPCM Audio                      English         27648 kbps      5.1 / 192 kHz / 27648 kbps / 24-bit
* LPCM Audio                    English         9216 kbps       2.0 / 192 kHz / 9216 kbps / 24-bit
FILES:
Name            Time In         Length          Size            Total Bitrate
----            -------         ------          ----            -------------
00015.M2TS      0:00:00.000     1:08:58.000     25 071 187 968  48 470
CHAPTERS:
Number          Time In         Length          Avg Video Rate  Max 1-Sec Rate  Max 1-Sec Time  Max 5-Sec Rate  Max 5-Sec Time  Max
10Sec Rate  Max 10Sec Time  Avg Frame Size  Max Frame Size  Max Frame Time
------          -------         ------          --------------  --------------  --------------  --------------  --------------
--------------  --------------  --------------  --------------  --------------
1               0:00:00.000     0:03:02.500     9 000 kbps      9 307 kbps      00:00:00.458    9 000 kbps      00:00:00.124
9 032 kbps      00:00:00.458    46 862 bytes    86 867 bytes    00:00:00.500
2               0:03:02.500     0:03:08.791     9 000 kbps      9 319 kbps      00:06:10.250    9 066 kbps      00:06:06.291
9 033 kbps      00:06:01.250    46 875 bytes    88 409 bytes    00:06:11.291
3               0:06:11.291     0:06:22.166     8 999 kbps      9 319 kbps      00:06:11.666    9 064 kbps      00:12:28.416
9 033 kbps      00:06:11.666    46 871 bytes    88 409 bytes    00:06:11.708
4               0:12:33.458     0:02:55.250     9 000 kbps      9 351 kbps      00:15:27.625    9 073 kbps      00:15:23.666
9 036 kbps      00:15:18.625    46 877 bytes    92 588 bytes    00:15:28.666
5               0:15:28.708     0:05:13.666     9 000 kbps      9 353 kbps      00:20:41.291    9 074 kbps      00:20:37.333
9 037 kbps      00:20:32.291    46 875 bytes    92 870 bytes    00:20:42.333
6               0:20:42.375     0:05:02.958     9 001 kbps      9 353 kbps      00:20:42.708    9 120 kbps      00:25:40.291
9 037 kbps      00:20:42.708    46 881 bytes    92 870 bytes    00:20:42.750
7               0:25:45.333     0:05:06.791     8 998 kbps      9 343 kbps      00:25:45.666    9 052 kbps      00:30:47.083
9 036 kbps      00:25:45.666    46 867 bytes    91 477 bytes    00:25:45.708
8               0:30:52.125     0:13:09.458     9 000 kbps      9 341 kbps      00:44:00.541    9 121 kbps      00:43:56.541
9 035 kbps      00:43:51.541    46 877 bytes    89 851 bytes    00:44:01.541
9               0:44:01.583     0:08:54.000     9 000 kbps      9 330 kbps      00:44:01.916    9 086 kbps      00:52:50.541
9 034 kbps      00:44:01.916    46 873 bytes    89 851 bytes    00:44:01.958
10              0:52:55.583     0:08:53.541     9 000 kbps      9 321 kbps      00:52:55.916    9 066 kbps      01:01:44.083
9 033 kbps      00:52:55.916    46 874 bytes    88 729 bytes    00:52:55.958
11              1:01:49.125     0:07:08.875     9 001 kbps      9 318 kbps      01:08:56.958    9 000 kbps      01:08:53.000
9 033 kbps      01:08:47.958    46 878 bytes    88 287 bytes    01:08:58.000
STREAM DIAGNOSTICS:
File            PID             Type            Codec           Language                Seconds                 Bitrate
   Bytes           Packets
----            ---             ----            -----           --------                --------------          --------------
   -------------   -----
00015.M2TS      4113 (0x1011)   0x02            MPEG-2                                  4138,000                9 000
   4 655 240 436   25 334 096
00015.M2TS      4352 (0x1100)   0x80            LPCM            eng (English)           4138,000                27 655
   14 304 393 956  78 622 855
00015.M2TS      4353 (0x1101)   0x80            LPCM            eng (English)           4138,000                9 223
   4 770 338 276   26 483 488
<---- END FORUMS PASTE ---->
QUICK SUMMARY:
Disc Title:
Disc Size: 45 494 183 524 bytes
Protection: AACS
BD-Java: No
Playlist: 00002.MPLS
Size: 25 071 187 968 bytes
Length: 1:08:58
Total Bitrate: 48,47 Mbps
Video: MPEG-2 Video / 9000 kbps / 1080p / 24 fps / 16:9
Audio: English / LPCM Audio / 5.1 / 192 kHz / 27648 kbps / 24-bit
* Audio: English / LPCM Audio / 2.0 / 192 kHz / 9216 kbps / 24-bit
********************
PLAYLIST: 00005.MPLS
********************
<--- BEGIN FORUMS PASTE --->
Код:
Total   Video
Title                                                           Codec   Length  Movie Size      Disc Size       Bitrate Bitrate Main
Audio Track                          Secondary Audio Track
-----                                                           ------  ------- --------------  --------------  ------- -------
------------------                        ---------------------
00005.MPLS                                                      MPEG-2  1:08:58 25 071 187 968  45 494 183 524  48,47   9,00    LPCM
5.1 27648Kbps (192kHz/24-bit)        LPCM 2.0 9216Kbps (192kHz/24-bit)
Код:
DISC INFO:
Disc Title:
Disc Size:      45 494 183 524 bytes
Protection:     AACS
BD-Java:        No
BDInfo:         0.5.3
PLAYLIST REPORT:
Name:                   00005.MPLS
Length:                 1:08:58 (h:m:s)
Size:                   25 071 187 968 bytes
Total Bitrate:          48,47 Mbps
(*) Indicates included stream hidden by this playlist.
VIDEO:
Codec                   Bitrate             Description
-----                   -------             -----------
MPEG-2 Video            9000 kbps           1080p / 24 fps / 16:9
AUDIO:
Codec                           Language        Bitrate         Description
-----                           --------        -------         -----------
* LPCM Audio                    English         27648 kbps      5.1 / 192 kHz / 27648 kbps / 24-bit
LPCM Audio                      English         9216 kbps       2.0 / 192 kHz / 9216 kbps / 24-bit
FILES:
Name            Time In         Length          Size            Total Bitrate
----            -------         ------          ----            -------------
00015.M2TS      0:00:00.000     1:08:58.000     25 071 187 968  48 470
CHAPTERS:
Number          Time In         Length          Avg Video Rate  Max 1-Sec Rate  Max 1-Sec Time  Max 5-Sec Rate  Max 5-Sec Time  Max
10Sec Rate  Max 10Sec Time  Avg Frame Size  Max Frame Size  Max Frame Time
------          -------         ------          --------------  --------------  --------------  --------------  --------------
--------------  --------------  --------------  --------------  --------------
1               0:00:00.000     0:03:02.500     9 000 kbps      9 307 kbps      00:00:00.458    9 000 kbps      00:00:00.124
9 032 kbps      00:00:00.458    46 862 bytes    86 867 bytes    00:00:00.500
2               0:03:02.500     0:03:08.791     9 000 kbps      9 319 kbps      00:06:10.250    9 066 kbps      00:06:06.291
9 033 kbps      00:06:01.250    46 875 bytes    88 409 bytes    00:06:11.291
3               0:06:11.291     0:06:22.166     8 999 kbps      9 319 kbps      00:06:11.666    9 064 kbps      00:12:28.416
9 033 kbps      00:06:11.666    46 871 bytes    88 409 bytes    00:06:11.708
4               0:12:33.458     0:02:55.250     9 000 kbps      9 351 kbps      00:15:27.625    9 073 kbps      00:15:23.666
9 036 kbps      00:15:18.625    46 877 bytes    92 588 bytes    00:15:28.666
5               0:15:28.708     0:05:13.666     9 000 kbps      9 353 kbps      00:20:41.291    9 074 kbps      00:20:37.333
9 037 kbps      00:20:32.291    46 875 bytes    92 870 bytes    00:20:42.333
6               0:20:42.375     0:05:02.958     9 001 kbps      9 353 kbps      00:20:42.708    9 120 kbps      00:25:40.291
9 037 kbps      00:20:42.708    46 881 bytes    92 870 bytes    00:20:42.750
7               0:25:45.333     0:05:06.791     8 998 kbps      9 343 kbps      00:25:45.666    9 052 kbps      00:30:47.083
9 036 kbps      00:25:45.666    46 867 bytes    91 477 bytes    00:25:45.708
8               0:30:52.125     0:13:09.458     9 000 kbps      9 341 kbps      00:44:00.541    9 121 kbps      00:43:56.541
9 035 kbps      00:43:51.541    46 877 bytes    89 851 bytes    00:44:01.541
9               0:44:01.583     0:08:54.000     9 000 kbps      9 330 kbps      00:44:01.916    9 086 kbps      00:52:50.541
9 034 kbps      00:44:01.916    46 873 bytes    89 851 bytes    00:44:01.958
10              0:52:55.583     0:08:53.541     9 000 kbps      9 321 kbps      00:52:55.916    9 066 kbps      01:01:44.083
9 033 kbps      00:52:55.916    46 874 bytes    88 729 bytes    00:52:55.958
11              1:01:49.125     0:07:08.875     9 001 kbps      9 318 kbps      01:08:56.958    9 000 kbps      01:08:53.000
9 033 kbps      01:08:47.958    46 878 bytes    88 287 bytes    01:08:58.000
STREAM DIAGNOSTICS:
File            PID             Type            Codec           Language                Seconds                 Bitrate
   Bytes           Packets
----            ---             ----            -----           --------                --------------          --------------
   -------------   -----
00015.M2TS      4113 (0x1011)   0x02            MPEG-2                                  4138,000                9 000
   4 655 240 436   25 334 096
00015.M2TS      4352 (0x1100)   0x80            LPCM            eng (English)           4138,000                27 655
   14 304 393 956  78 622 855
00015.M2TS      4353 (0x1101)   0x80            LPCM            eng (English)           4138,000                9 223
   4 770 338 276   26 483 488
<---- END FORUMS PASTE ---->
QUICK SUMMARY:
Disc Title:
Disc Size: 45 494 183 524 bytes
Protection: AACS
BD-Java: No
Playlist: 00005.MPLS
Size: 25 071 187 968 bytes
Length: 1:08:58
Total Bitrate: 48,47 Mbps
Video: MPEG-2 Video / 9000 kbps / 1080p / 24 fps / 16:9
* Audio: English / LPCM Audio / 5.1 / 192 kHz / 27648 kbps / 24-bit
Audio: English / LPCM Audio / 2.0 / 192 kHz / 9216 kbps / 24-bit
Материал представлен в формате Blu-Ray и выложен папками. Для прослушивания рекомендую воспользоваться проигрывателями TotalMedia
Theatre 3 или Power DVD (последних версий с поддержкой HD контента).
Для записи можно использовать Alcohol 120% с поддержкой Blu-Ray (Version 5.0) или ImgBurn
Формат записи: Blu-ray BD50-R/RE DL Disc
Внимание!
Для получения полной отдачи от материала, необходим декодер DTS-HD Master Audio и Dolby TrueHD.
--
Download / Скачать

Хотите скачать бесплатно? Зарегистрируйтесь на сайте (ссылка на регистрацию). Pirat.ca - самый быстрый торрент трекер в рунете!

Как скачивать  ·   Что такое торрент  ·   Рейтинг и ограничения



Последний раз редактировалось: Koralina (2012-04-15 02:35), всего редактировалось 1 раз

Пост 15-Апр-2012 02:20 (спустя 8 дней)

Топик был перенесен из форума DVD-Audio, SACD и Audio-DVD в форум HD Audio

Kote Makaradze
 

Пират

1552

Пост 23-Июл-2013 17:36 (спустя 1 год 3 месяца)

[Q] 

встаю на раздачу.....

_________________
Всё, что с нами происходит - результат наших прошлых поступков. Наше будущее зависит от того, что мы делаем сейчас...
[Профиль]  [ЛС] 
Показать сообщения:    
Ответить на тему

Текущее время: Сегодня 11:21

Часовой пояс: GMT + 4



Вы не можете начинать темы
Вы не можете отвечать на сообщения
Вы не можете редактировать свои сообщения
Вы не можете удалять свои сообщения
Вы не можете голосовать в опросах
Вы не можете прикреплять файлы к сообщениям
Вы не можете скачивать файлы

Майнать ▼